archer wwe The New Mutants 2020 american dad The 2nd 2020 Tenet 2020 Aew Wentworth S08E08 ethd Peninsula 2020 Greenland 2020 Power Book II Ghost S01E02 The Boys S02E04 Unhinged 2020 minx The War with Grandpa 2020 dc week Americas Got Talent S15E21 Rogue 2020 raised by wolves star trek the 100 The 100 S07E14 yts TENET  The boys The Boys S02E02 Raised by Wolves S01E07 des The Third Day S01E01 The Boys S02E01 Bill and Ted Face the Music 2020 proper Des S01E03 The Devil All the Time 2020 Mulan 2020 Holey Moley s02e13 Lovecraft Country S01E05 evo Ava 2020 The devil all the time The Babysitter Killer Queen 2020 Raised by Wolves S01E01 Cuties 2020 Des S01E02 etrg 2160p Raised by Wolves s01e06 Hard Kill 2020 ddr Raised by Wolves S01E05 The Social Dilemma 2020 Raised by Wolves S01E03 etmovies rq.mp4 Big Brother S22E18 ettv wentworth Archer S11E01 The Real Housewives of Beverly Hills S10E19 Antebellum 2020 Des S01E01 marvel week The Boys S02E03 hindi The Owners 2020 xxx Lower Decks Raised by Wolves S01E04 Raised by Wolves S01E02 Deadliest Catch S16E22 After We Collided 2020 
Warning! Use a VPN When Downloading Torrents!
Your IP Address is 75.101.220.230. Location United States
Your Internet Provider can see when you download torrents! Hide your IP Address with a VPN
ETTV warns: You should use VPN to hide your torrenting. HIDE ME NOW
ETTV Recommended TV Shows
WWE NXT 16th Sept 2020 WEBRip h264-TJ [TJET] torrent
Raised.by.Wolves.2020.S01E06.1080p.WEB.H264-VIDEOHOLE torrent
The.100.S07E14.WEB.h264-BAE torrent
Star.Trek.Lower.Decks.S01E07.1080p.WEB.H264-VIDEOHOLE torrent
American.Dad.S16E23.300.720p.WEBRip.DD5.1.X.264-EVO torrent
Wheeler.Dealers.S16E05.2004.Mazdaspeed.MX-5.WEBRip.x264-skorpion.mkv torrent
Ch5.Nelson.Britains.Great.Naval.Hero.1080p.HDTV.x265.AAC.MVGroup.org.mkv torrent
Archer.2009.S11E02.Bloodsploosh.720p.HDTV.x264-CRiMSON torrent
Big.Brother.US.S22E19.HDTV.x264-[NY2] torrent
COURAGE the COWARDLY DOG (1999-2002) - Complete Animated TV Series, Season 1,2,3,4 S01-S04 - 720p AMZN Web-DL x264 torrent

ETTV Recommended SD
Pulp Fiction (1994)Mp-4 X264 Dvd-Rip 480p AAC[DSD] torrent
This.World.Wont.Break.2020.HDRip.XviD.AC3-EVO torrent
The.Debt.Collector.2.2020.BRRip.XviD.AC3-EVO torrent
The League of Extraordinary Gentlemen (2003)Mp-4 X264 Dvd-Rip 480p AAC[DSD] torrent

ETTV Recommended HD
Alita.Battle.Angel.BRRip.1080p.HEVC.HDR.Eng.DD5.1.Gerald torrent
The Sorcerer's Apprentice (2010) [Nicolas Cage] 1080p H264 DolbyD 5.1 ūüíé nickarad torrent
Willow 1988 720p BluRay HEVC H265 BONE torrent
The Victors  (War Drama 1963)  Vince Edwards  720p torrent

ETTV Recommended UHD
3.From.Hell.2019.MULTi.UNRATED.2160p.BLURAY.HDR.DTS-HDMA.5.1.HEVC-DDR.mkv torrent
21.Jump.Street.2012.MULTi.2160p.BLURAY.HDR.DTS-HDMA.7.1.HEVC-DDR.mkv torrent
22.Jump.Street.2014.MULTi.2160p.BLURAY.HDR.DTS-HDMA.7.1.HEVC-DDR.mkv torrent
Vertigo.1958.MULTi.2160p.Bluray.HDR.DtS-HDMA.7.1.HEVC-DDR.mkv torrent
Hocus.Pocus.1993.MULTi..BluRay.2160p.HEVC.DTS-HD.MA.5.1.HEVC-DDR.mkv torrent
Emma.2020.MULTi.2160p.HDR.WEB.DTS.5.1.HEVC-DDR.mkv torrent

ETTV Recommended Cam
Tenet.2020.HC.HDTC.XviD.B4ND1T69 torrent
The.Broken.Hearts.Gallery.2020.HDCAM.x264.LLG torrent

ETTV Recommended Foreign
Goodfellas - Quei bravi ragazzi (1990) AC3 2.0 ITA 5.1 ENG 1080p H265 sub NUita.eng Sp33dy94 MIRCrew torrent
V (2020) [TELUGU - 720p - WEB HDRip - x264 - DD 5.1 - ESub - 2GB] - MAZE torrent
The Social Dilemma (2020) FullHD 1080p.H264 Ita Eng AC3 5.1 Sub Ita Eng MIRCrew torrent
Fantastic.Planet.1973.576p.BluRay.x264.AAC.HORiZON-ArtSubs torrent
Time.Enna.Boss.S01.2020.AMZN.WEB-DL.TAM-TEL.DDP5.1.H.264-Telly torrent
The.Spy.2019.NORWEGIAN.720p.BluRay.x264.AAC-Mkvking torrent

ETTV Recommended Music
ABBA - Thank You For The Music (4CD) (1994) [FLAC] [DJ] torrent
Nazareth - The Ultimate Collection (3CD) (2020) Mp3 320kbps [PMEDIA] ‚≠źÔłŹ torrent
[indie-folk] (2020) Bróna McVittie - The Man in the Mountain [FLAC] [DarkAngie] torrent
The Police - The Singles YERAYCITO MASTER SERIES XX torrent
MAX - Colour Vision (2020) Mp3 320kbps [PMEDIA] ‚≠źÔłŹ torrent
Queen II - 1974 - mp3 - 320kbps - G&U torrent


Download Torrent "True.History.of.the.Kelly.Gang.2019.HDR.2160p.WEBRip.DDP.5.1.HEVC-DDR.mkv"

IMDB Details
Description:

Based on Peter Carey's novel. The story of Australian bushranger Ned Kelly and his gang as they flee from authorities during the 1870s.

Genre:

Biography, Crime, Drama, Western

Download Torrent (Magnet)
Download Torrent (File)

Seeds: 109
Leechers: 79

Uploaded by:
DDR


Category:
Movies > UltraHD/4K


Details
Title:True.History.of.the.Kelly.Gang.2019.HDR.2160p.WEBRip.DDP.5.1.HEVC-DDR.mkv
Description:







Complete name                            : D:\00_demux\True.History.of.the.Kelly.Gang.2019.HDR.2160p.WEBRip.DDP.5.1.HEVC-DDR.mkv
Format                                   : Matroska
Format version                           : Version 4
File size                                : 8.75 GiB
Duration                                 : 2 h 5 min
Overall bit rate                         : 10.0 Mb/s

Video
ID                                       : 1
Format                                   : HEVC
Format/Info                              : High Efficiency Video Coding
Commercial name                          : HDR10
Format profile¬†¬†¬†¬†¬†¬†¬†¬†¬†¬†¬†¬†¬†¬†¬†¬†¬†¬†¬†¬†¬†¬†¬†¬†¬†¬† : Main [email protected]@High
Codec ID                                 : V_MPEGH/ISO/HEVC
Duration                                 : 2 h 5 min
Bit rate                                 : 9 563 kb/s
Width                                    : 3 840 pixels
Height                                   : 2 160 pixels
Display aspect ratio                     : 16:9
Frame rate mode                          : Constant
Frame rate                               : 24.000 FPS
Color space                              : YUV
Chroma subsampling                       : 4:2:0
Bit depth                                : 10 bits
Bits/(Pixel*Frame)                       : 0.048
Stream size                              : 8.36 GiB (96%)
Language                                 : English
Default                                  : Yes
Forced                                   : No
Color range                              : Limited
Color primaries                          : BT.2020
Transfer characteristics                 : PQ
Matrix coefficients                      : BT.2020 non-constant
Mastering display color primaries        : Display P3
Mastering display luminance              : min: 0.0001 cd/m2, max: 1000 cd/m2

Audio
ID                                       : 2
Format                                   : E-AC-3
Format/Info                              : Enhanced AC-3
Commercial name                          : Dolby Digital Plus
Codec ID                                 : A_EAC3
Duration                                 : 2 h 5 min
Bit rate mode                            : Constant
Bit rate                                 : 448 kb/s
Channel(s)                               : 6 channels
Channel layout                           : L R C LFE Ls Rs
Sampling rate                            : 48.0 kHz
Frame rate                               : 31.250 FPS (1536 SPF)
Compression mode                         : Lossy
Stream size                              : 401 MiB (4%)
Language                                 : English
Service kind                             : Complete Main
Default                                  : Yes
Forced                                   : No

Text
ID                                       : 3
Format                                   : UTF-8
Codec ID                                 : S_TEXT/UTF8
Codec ID/Info                            : UTF-8 Plain Text
Duration                                 : 2 h 0 min
Bit rate                                 : 59 b/s
Count of elements                        : 1742
Stream size                              : 52.4 KiB (0%)
Title                                    : English (SDH)
Language                                 : English
Default                                  : No
Forced                                   : No



MikeKhan /Desitorrents.tv

Category:Movies > UltraHD/4K
Lang:English  English
Total Size:8.75 GB
Info Hash:e416b3cb139c52cee034f71cc4fcefd906b792f3
Added By:DDR
Date Added:03-08-2020 20:20:57

  

Files

File List: 
 File Size
True.History.of.the.Kelly.Gang.2019.HDR.2160p.WEBRip.DDP.5.1.HEVC-DDR.mkv8.75 GB



Comments

There are currently no comments. Be the first one to write something !