archer wwe The New Mutants 2020 american dad The 2nd 2020 Tenet 2020 Aew Wentworth S08E08 ethd Peninsula 2020 Greenland 2020 Power Book II Ghost S01E02 The Boys S02E04 Unhinged 2020 minx The War with Grandpa 2020 dc week Americas Got Talent S15E21 Rogue 2020 raised by wolves star trek the 100 The 100 S07E14 yts TENET  The boys The Boys S02E02 Raised by Wolves S01E07 des The Third Day S01E01 The Boys S02E01 Bill and Ted Face the Music 2020 proper Des S01E03 The Devil All the Time 2020 Mulan 2020 Holey Moley s02e13 Lovecraft Country S01E05 evo Ava 2020 The devil all the time The Babysitter Killer Queen 2020 Raised by Wolves S01E01 Cuties 2020 Des S01E02 etrg 2160p Raised by Wolves s01e06 Hard Kill 2020 ddr Raised by Wolves S01E05 The Social Dilemma 2020 Raised by Wolves S01E03 etmovies rq.mp4 Big Brother S22E18 ettv wentworth Archer S11E01 The Real Housewives of Beverly Hills S10E19 Antebellum 2020 Des S01E01 marvel week The Boys S02E03 hindi The Owners 2020 xxx Lower Decks Raised by Wolves S01E04 Raised by Wolves S01E02 Deadliest Catch S16E22 After We Collided 2020 
Warning! Use a VPN When Downloading Torrents!
Your IP Address is 75.101.220.230. Location United States
Your Internet Provider can see when you download torrents! Hide your IP Address with a VPN
ETTV warns: You should use VPN to hide your torrenting. HIDE ME NOW
ETTV Recommended TV Shows
WWE NXT 16th Sept 2020 WEBRip h264-TJ [TJET] torrent
Raised.by.Wolves.2020.S01E06.1080p.WEB.H264-VIDEOHOLE torrent
The.100.S07E14.WEB.h264-BAE torrent
Star.Trek.Lower.Decks.S01E07.1080p.WEB.H264-VIDEOHOLE torrent
American.Dad.S16E23.300.720p.WEBRip.DD5.1.X.264-EVO torrent
Wheeler.Dealers.S16E05.2004.Mazdaspeed.MX-5.WEBRip.x264-skorpion.mkv torrent
Ch5.Nelson.Britains.Great.Naval.Hero.1080p.HDTV.x265.AAC.MVGroup.org.mkv torrent
Archer.2009.S11E02.Bloodsploosh.720p.HDTV.x264-CRiMSON torrent
Big.Brother.US.S22E19.HDTV.x264-[NY2] torrent
COURAGE the COWARDLY DOG (1999-2002) - Complete Animated TV Series, Season 1,2,3,4 S01-S04 - 720p AMZN Web-DL x264 torrent

ETTV Recommended SD
Pulp Fiction (1994)Mp-4 X264 Dvd-Rip 480p AAC[DSD] torrent
This.World.Wont.Break.2020.HDRip.XviD.AC3-EVO torrent
The.Debt.Collector.2.2020.BRRip.XviD.AC3-EVO torrent
The League of Extraordinary Gentlemen (2003)Mp-4 X264 Dvd-Rip 480p AAC[DSD] torrent

ETTV Recommended HD
Alita.Battle.Angel.BRRip.1080p.HEVC.HDR.Eng.DD5.1.Gerald torrent
The Sorcerer's Apprentice (2010) [Nicolas Cage] 1080p H264 DolbyD 5.1 ūüíé nickarad torrent
Willow 1988 720p BluRay HEVC H265 BONE torrent
The Victors  (War Drama 1963)  Vince Edwards  720p torrent

ETTV Recommended UHD
3.From.Hell.2019.MULTi.UNRATED.2160p.BLURAY.HDR.DTS-HDMA.5.1.HEVC-DDR.mkv torrent
21.Jump.Street.2012.MULTi.2160p.BLURAY.HDR.DTS-HDMA.7.1.HEVC-DDR.mkv torrent
22.Jump.Street.2014.MULTi.2160p.BLURAY.HDR.DTS-HDMA.7.1.HEVC-DDR.mkv torrent
Vertigo.1958.MULTi.2160p.Bluray.HDR.DtS-HDMA.7.1.HEVC-DDR.mkv torrent
Hocus.Pocus.1993.MULTi..BluRay.2160p.HEVC.DTS-HD.MA.5.1.HEVC-DDR.mkv torrent
Emma.2020.MULTi.2160p.HDR.WEB.DTS.5.1.HEVC-DDR.mkv torrent

ETTV Recommended Cam
Tenet.2020.HC.HDTC.XviD.B4ND1T69 torrent
The.Broken.Hearts.Gallery.2020.HDCAM.x264.LLG torrent

ETTV Recommended Foreign
Goodfellas - Quei bravi ragazzi (1990) AC3 2.0 ITA 5.1 ENG 1080p H265 sub NUita.eng Sp33dy94 MIRCrew torrent
V (2020) [TELUGU - 720p - WEB HDRip - x264 - DD 5.1 - ESub - 2GB] - MAZE torrent
The Social Dilemma (2020) FullHD 1080p.H264 Ita Eng AC3 5.1 Sub Ita Eng MIRCrew torrent
Fantastic.Planet.1973.576p.BluRay.x264.AAC.HORiZON-ArtSubs torrent
Time.Enna.Boss.S01.2020.AMZN.WEB-DL.TAM-TEL.DDP5.1.H.264-Telly torrent
The.Spy.2019.NORWEGIAN.720p.BluRay.x264.AAC-Mkvking torrent

ETTV Recommended Music
ABBA - Thank You For The Music (4CD) (1994) [FLAC] [DJ] torrent
Nazareth - The Ultimate Collection (3CD) (2020) Mp3 320kbps [PMEDIA] ‚≠źÔłŹ torrent
[indie-folk] (2020) Bróna McVittie - The Man in the Mountain [FLAC] [DarkAngie] torrent
The Police - The Singles YERAYCITO MASTER SERIES XX torrent
MAX - Colour Vision (2020) Mp3 320kbps [PMEDIA] ‚≠źÔłŹ torrent
Queen II - 1974 - mp3 - 320kbps - G&U torrent


Download Torrent "Troop.Zero.2019.HDR.2160p.WebRip.DDP.5.1.HEVC-DDR.mkv"

IMDB Details
Description:

In rural 1977 Georgia, a misfit girl dreams of life in outer space. When a competition offers her a chance to be recorded on NASA's Golden Record, she recruits a makeshift troop of Birdie Scouts, forging friendships that last a lifetime.

Genre:

Comedy, Drama, Family

Download Torrent (Magnet)
Download Torrent (File)

Seeds: 32
Leechers: 37

Uploaded by:
DDR


Category:
Movies > UltraHD/4K


Details
Title:Troop.Zero.2019.HDR.2160p.WebRip.DDP.5.1.HEVC-DDR.mkv
Description:






Complete name                            : D:\00_demux\Troop.Zero.2019.HDR.2160p.WebRip.DDP.5.1.HEVC-DDR.mkv
Format                                   : Matroska
Format version                           : Version 4
File size                                : 7.06 GiB
Duration                                 : 1 h 37 min
Overall bit rate                         : 10.4 Mb/s
Encoded date                             : UTC 2020-08-03 07:56:18
Writing application                      : mkvmerge v47.0.0 ('Black Flag') 64-bit
Writing library                          : libebml v1.3.10 + libmatroska v1.5.2

Video
ID                                       : 1
Format                                   : HEVC
Format/Info                              : High Efficiency Video Coding
Commercial name                          : HDR10
Format profile¬†¬†¬†¬†¬†¬†¬†¬†¬†¬†¬†¬†¬†¬†¬†¬†¬†¬†¬†¬†¬†¬†¬†¬†¬†¬† : Main [email protected]@High
Codec ID                                 : V_MPEGH/ISO/HEVC
Duration                                 : 1 h 37 min
Bit rate                                 : 9 728 kb/s
Width                                    : 3 840 pixels
Height                                   : 1 600 pixels
Display aspect ratio                     : 2.40:1
Frame rate mode                          : Constant
Frame rate                               : 23.976 (24000/1001) FPS
Color space                              : YUV
Chroma subsampling                       : 4:2:0
Bit depth                                : 10 bits
Bits/(Pixel*Frame)                       : 0.066
Stream size                              : 6.62 GiB (94%)
Language                                 : English
Default                                  : Yes
Forced                                   : No
Color range                              : Limited
Color primaries                          : BT.2020
Transfer characteristics                 : PQ
Matrix coefficients                      : BT.2020 non-constant
Mastering display color primaries        : Display P3
Mastering display luminance              : min: 0.0001 cd/m2, max: 1000 cd/m2
Maximum Content Light Level              : 708 cd/m2
Maximum Frame-Average Light Level        : 135 cd/m2

Audio
ID                                       : 2
Format                                   : E-AC-3
Format/Info                              : Enhanced AC-3
Commercial name                          : Dolby Digital Plus
Codec ID                                 : A_EAC3
Duration                                 : 1 h 37 min
Bit rate mode                            : Constant
Bit rate                                 : 640 kb/s
Channel(s)                               : 6 channels
Channel layout                           : L R C LFE Ls Rs
Sampling rate                            : 48.0 kHz
Frame rate                               : 31.250 FPS (1536 SPF)
Compression mode                         : Lossy
Stream size                              : 446 MiB (6%)
Title                                    : English
Language                                 : English
Service kind                             : Complete Main
Default                                  : Yes
Forced                                   : No

Text #1
ID                                       : 3
Format                                   : UTF-8
Codec ID                                 : S_TEXT/UTF8
Codec ID/Info                            : UTF-8 Plain Text
Duration                                 : 1 h 33 min
Bit rate                                 : 82 b/s
Count of elements                        : 1931
Stream size                              : 56.5 KiB (0%)
Title                                    : English [SDH]
Language                                 : English
Default                                  : No
Forced                                   : No

Text #2
ID                                       : 4
Format                                   : UTF-8
Codec ID                                 : S_TEXT/UTF8
Codec ID/Info                            : UTF-8 Plain Text
Duration                                 : 1 h 32 min
Bit rate                                 : 62 b/s
Count of elements                        : 1301
Stream size                              : 42.6 KiB (0%)
Title                                    : Castilian [Full]
Language                                 : Spanish
Default                                  : No
Forced                                   : No

Text #3
ID                                       : 5
Format                                   : UTF-8
Codec ID                                 : S_TEXT/UTF8
Codec ID/Info                            : UTF-8 Plain Text
Duration                                 : 1 h 32 min
Bit rate                                 : 58 b/s
Count of elements                        : 1279
Stream size                              : 39.5 KiB (0%)
Title                                    : Spanish [Full]
Language                                 : Spanish
Default                                  : No
Forced                                   : No

Text #4
ID                                       : 6
Format                                   : UTF-8
Codec ID                                 : S_TEXT/UTF8
Codec ID/Info                            : UTF-8 Plain Text
Duration                                 : 1 h 32 min
Bit rate                                 : 54 b/s
Count of elements                        : 1284
Stream size                              : 36.9 KiB (0%)
Title                                    : French [Full]
Language                                 : French
Default                                  : No
Forced                                   : No

Text #5
ID                                       : 7
Format                                   : UTF-8
Codec ID                                 : S_TEXT/UTF8
Codec ID/Info                            : UTF-8 Plain Text
Duration                                 : 1 h 32 min
Bit rate                                 : 57 b/s
Count of elements                        : 1300
Stream size                              : 39.3 KiB (0%)
Title                                    : German [Full]
Language                                 : German
Default                                  : No
Forced                                   : No

Text #6
ID                                       : 8
Format                                   : UTF-8
Codec ID                                 : S_TEXT/UTF8
Codec ID/Info                            : UTF-8 Plain Text
Duration                                 : 1 h 32 min
Bit rate                                 : 55 b/s
Count of elements                        : 1300
Stream size                              : 37.4 KiB (0%)
Title                                    : Italian [Full]
Language                                 : Italian
Default                                  : No
Forced                                   : No

Text #7
ID                                       : 9
Format                                   : UTF-8
Codec ID                                 : S_TEXT/UTF8
Codec ID/Info                            : UTF-8 Plain Text
Duration                                 : 1 h 32 min
Bit rate                                 : 59 b/s
Count of elements                        : 1302
Stream size                              : 40.5 KiB (0%)
Title                                    : Brazilian Portuguese [Full]
Language                                 : Portuguese
Default                                  : No
Forced                                   : No

Text #8
ID                                       : 10
Format                                   : UTF-8
Codec ID                                 : S_TEXT/UTF8
Codec ID/Info                            : UTF-8 Plain Text
Duration                                 : 1 h 32 min
Bit rate                                 : 59 b/s
Count of elements                        : 1304
Stream size                              : 40.1 KiB (0%)
Title                                    : Polish [Full]
Language                                 : Polish
Default                                  : No
Forced                                   : No

Text #9
ID                                       : 11
Format                                   : UTF-8
Codec ID                                 : S_TEXT/UTF8
Codec ID/Info                            : UTF-8 Plain Text
Duration                                 : 1 h 32 min
Bit rate                                 : 60 b/s
Count of elements                        : 1302
Stream size                              : 41.3 KiB (0%)
Title                                    : Turkish [Full]
Language                                 : Turkish
Default                                  : No
Forced                                   : No

Text #10
ID                                       : 12
Format                                   : UTF-8
Codec ID                                 : S_TEXT/UTF8
Codec ID/Info                            : UTF-8 Plain Text
Duration                                 : 1 h 32 min
Bit rate                                 : 59 b/s
Count of elements                        : 1067
Stream size                              : 40.2 KiB (0%)
Title                                    : Swedish [Full]
Language                                 : Swedish
Default                                  : No
Forced                                   : No

Text #11
ID                                       : 13
Format                                   : UTF-8
Codec ID                                 : S_TEXT/UTF8
Codec ID/Info                            : UTF-8 Plain Text
Duration                                 : 1 h 32 min
Bit rate                                 : 62 b/s
Count of elements                        : 1302
Stream size                              : 42.1 KiB (0%)
Title                                    : Danish [Full]
Language                                 : Danish
Default                                  : No
Forced                                   : No

Text #12
ID                                       : 14
Format                                   : UTF-8
Codec ID                                 : S_TEXT/UTF8
Codec ID/Info                            : UTF-8 Plain Text
Duration                                 : 1 h 32 min
Bit rate                                 : 58 b/s
Count of elements                        : 1257
Stream size                              : 40.0 KiB (0%)
Title                                    : Finnish [Full]
Language                                 : Finnish
Default                                  : No
Forced                                   : No

Text #13
ID                                       : 15
Format                                   : UTF-8
Codec ID                                 : S_TEXT/UTF8
Codec ID/Info                            : UTF-8 Plain Text
Duration                                 : 1 h 32 min
Bit rate                                 : 54 b/s
Count of elements                        : 1228
Stream size                              : 37.3 KiB (0%)
Title                                    : Dutch [Full]
Language                                 : Dutch
Default                                  : No
Forced                                   : No

Text #14
ID                                       : 16
Format                                   : UTF-8
Codec ID                                 : S_TEXT/UTF8
Codec ID/Info                            : UTF-8 Plain Text
Duration                                 : 1 h 32 min
Bit rate                                 : 54 b/s
Count of elements                        : 1005
Stream size                              : 37.2 KiB (0%)
Title                                    : Norwegian (Bokmål) [Full]
Language                                 : Norwegian Bokmal
Default                                  : No
Forced                                   : No

Text #15
ID                                       : 17
Format                                   : UTF-8
Codec ID                                 : S_TEXT/UTF8
Codec ID/Info                            : UTF-8 Plain Text
Duration                                 : 1 h 32 min
Bit rate                                 : 95 b/s
Count of elements                        : 1304
Stream size                              : 64.9 KiB (0%)
Title                                    : Russian [Full]
Language                                 : Russian
Default                                  : No
Forced                                   : No

Text #16
ID                                       : 18
Format                                   : UTF-8
Codec ID                                 : S_TEXT/UTF8
Codec ID/Info                            : UTF-8 Plain Text
Duration                                 : 1 h 32 min
Bit rate                                 : 94 b/s
Count of elements                        : 1304
Stream size                              : 64.2 KiB (0%)
Title                                    : Arabic [Full]
Language                                 : Arabic
Default                                  : No
Forced                                   : No

Text #17
ID                                       : 19
Format                                   : UTF-8
Codec ID                                 : S_TEXT/UTF8
Codec ID/Info                            : UTF-8 Plain Text
Duration                                 : 1 h 32 min
Bit rate                                 : 160 b/s
Count of elements                        : 1314
Stream size                              : 109 KiB (0%)
Title                                    : Hindi [Full]
Language                                 : Hindi
Default                                  : No
Forced                                   : No

Text #18
ID                                       : 20
Format                                   : UTF-8
Codec ID                                 : S_TEXT/UTF8
Codec ID/Info                            : UTF-8 Plain Text
Duration                                 : 1 h 32 min
Bit rate                                 : 168 b/s
Count of elements                        : 1304
Stream size                              : 114 KiB (0%)
Title                                    : Tamil [Full]
Language                                 : Tamil
Default                                  : No
Forced                                   : No

Text #19
ID                                       : 21
Format                                   : UTF-8
Codec ID                                 : S_TEXT/UTF8
Codec ID/Info                            : UTF-8 Plain Text
Duration                                 : 1 h 32 min
Bit rate                                 : 166 b/s
Count of elements                        : 1304
Stream size                              : 113 KiB (0%)
Title                                    : Telugu [Full]
Language                                 : Telugu
Default                                  : No
Forced                                   : No

Text #20
ID                                       : 22
Format                                   : UTF-8
Codec ID                                 : S_TEXT/UTF8
Codec ID/Info                            : UTF-8 Plain Text
Duration                                 : 1 h 32 min
Bit rate                                 : 61 b/s
Count of elements                        : 1308
Stream size                              : 41.4 KiB (0%)
Title                                    : Indonesian [Full]
Language                                 : Indonesian
Default                                  : No
Forced                                   : No

Text #21
ID                                       : 23
Format                                   : UTF-8
Codec ID                                 : S_TEXT/UTF8
Codec ID/Info                            : UTF-8 Plain Text
Duration                                 : 1 h 32 min
Bit rate                                 : 155 b/s
Count of elements                        : 1304
Stream size                              : 106 KiB (0%)
Title                                    : Thai [Full]
Language                                 : Thai
Default                                  : No
Forced                                   : No

Text #22
ID                                       : 24
Format                                   : UTF-8
Codec ID                                 : S_TEXT/UTF8
Codec ID/Info                            : UTF-8 Plain Text
Duration                                 : 1 h 32 min
Bit rate                                 : 64 b/s
Count of elements                        : 1304
Stream size                              : 44.0 KiB (0%)
Title                                    : Korean [Full]
Language                                 : Korean
Default                                  : No
Forced                                   : No

Text #23
ID                                       : 25
Format                                   : UTF-8
Codec ID                                 : S_TEXT/UTF8
Codec ID/Info                            : UTF-8 Plain Text
Duration                                 : 1 h 32 min
Bit rate                                 : 60 b/s
Count of elements                        : 1304
Stream size                              : 40.9 KiB (0%)
Title                                    : Chinese (Simplified) [Full]
Language                                 : Chinese
Default                                  : No
Forced                                   : No

Text #24
ID                                       : 26
Format                                   : UTF-8
Codec ID                                 : S_TEXT/UTF8
Codec ID/Info                            : UTF-8 Plain Text
Duration                                 : 1 h 32 min
Bit rate                                 : 55 b/s
Count of elements                        : 1306
Stream size                              : 37.6 KiB (0%)
Title                                    : Chinese (Traditional) [Full]
Language                                 : Chinese
Default                                  : No
Forced                                   : No

Text #25
ID                                       : 27
Format                                   : UTF-8
Codec ID                                 : S_TEXT/UTF8
Codec ID/Info                            : UTF-8 Plain Text
Duration                                 : 1 h 35 min
Bit rate                                 : 50 b/s
Count of elements                        : 1392
Stream size                              : 35.4 KiB (0%)
Title                                    : Japanese [Full]
Language                                 : Japanese
Default                                  : No
Forced                                   : No

Menu
00:00:00.000                             : en:Studio Logos
00:00:42.000                             : en:Opening Credits
00:01:46.000                             : en:Intro to Christmas
00:07:26.000                             : en:A chat with Miss Raylee
00:09:52.000                             : en:Warnings
00:11:50.000                             : en:A chance to work with NASA
00:17:57.000                             : en:Christmas is determined
00:26:45.000                             : en:Welcome to Birdie Scouting
00:32:35.000                             : en:Learning new skills
00:41:31.000                             : en:Bake a cake badge
00:48:20.000                             : en:Surviving the wilderness badge
00:56:43.000                             : en:Dashed dreams
01:01:06.000                             : en:Renewed hope
01:07:51.000                             : en:Arrival at the Jamboree
01:14:01.000                             : en:Jamboree performances
01:24:17.000                             : en:The winner is announced
01:29:02.000                             : en:Be permanent
01:33:11.000                             : en:End Credits




MikeKhan /Desitorrents.tv

Category:Movies > UltraHD/4K
Lang:English  English
Total Size:7.06 GB
Info Hash:69ee8f1722bd7ec7a5e8832ea97c0bce699eb2c9
Added By:DDR
Date Added:03-08-2020 20:20:32

  

Files

File List: 
 File Size
Troop.Zero.2019.HDR.2160p.WebRip.DDP.5.1.HEVC-DDR.mkv7.06 GB



Comments

There are currently no comments. Be the first one to write something !