The Gentlemen 2019 Fargo S04E02 The Babysitter Killer Queen 2020 wentworth aew Avengers Endgame 2019 Raised by Wolves S01E02 Rogue 2020 Hard Kill 2020 Raised by Wolves S01E07 Ratched S01E01 Bill and Ted Face the Music 2020 THE 100 Raised by Wolves S01E08 the great british bake off s11e02 The Masked Singer S04E02 Unhinged 2020 fargo Lost Girls and Love Hotels 2020 hindi The War with Grandpa 2020 Raised by Wolves S01E10 The Boys S02E06 Lower Decks Antebellum 2020 Lovecraft Country S01E07 Raised by Wolves S01E09 The Devil All the Time 2020 ettv Greenland 2020 Enola Holmes 2020 tenet Alone 2020 yts Idhun s01e01 Raised by Wolves S01E01 ddr The 100 S07E16 south park wwe Marvel week Peninsula 2020 The 2nd 2020 Power Book II Ghost S01E04 The Boys S01E01 the boys The Boys in the Band 2020 dc week Nomadland 2020 Wentworth S08E10 Tenet 2020 Fargo S04E01 Archer S11E04 Raised by Wolves S01E06 Big Brother S22E24 The New Mutants 2020 Solitary 2020 Secret Society of Second Born Royals 2020 ethd The Owners 2020 Mulan 2020 Ava 2020 The Comey Rule S01E01 rq.mp4 Attack of the Unknown 2020 evo xxx After We Collided 2020 Joker 2019 archer etmovies etrg Raised by Wolves 
Warning! Use a VPN When Downloading Torrents!
Your IP Address is 3.80.144.129. Location United States
Your Internet Provider can see when you download torrents! Hide your IP Address with a VPN
ETTV warns: You should use VPN to hide your torrenting. HIDE ME NOW
ETTV Recommended TV Shows
WWE Friday Night SmackDown 2020 09 18 HDTV x264-NWCHD [TJET] torrent
ITV.The.Real.Des.The.Dennis.Nilsen.Story.1080p.HDTV.x265.AAC.MVGroup.org.mkv torrent
NASCAR Xfinity Series 2020. R26. Food City 300. NBCSN torrent
I Hate Suzie 2020 S01 720p WEB-DL H264 BONE torrent
Love.Island.US.S02E23.WEB.h264-BAE torrent
Bering.Sea.Gold.S12E19.Freezer.Burn.DISC.WEB-DL.AAC2.0.x264-BOOP torrent

ETTV Recommended SD
The.Secret.Garden.2020.BDRip.XviD.AC3-EVO torrent
The.Glorias.2020.HDRip.XviD.AC3-EVO torrent
The.2nd.2020.BRRip.XviD.AC3-EVO torrent
The.Boys.in.the.Band.2020.HDRip.XviD.AC3-EVO torrent

ETTV Recommended HD
Battleship 2012 BluRay 1080p DTS AC3 x264-3Li torrent
Moontrap - Sci-Fi 1989 Eng Subs 1080p [H264-mp4] torrent
The Departed (2006) [Matt Damon] 1080p H264 DolbyD 5.1 💎 nickarad torrent
Green Zone (2010) [Matt Damon] 1080p H264 DolbyD 5.1 💎 nickarad torrent

ETTV Recommended UHD
The.Babysitter.Killer.Queen.2020.MULTI.2160p.HDR.WEB.EAC3.Hevc-DDR.mkv torrent
The.Devil.All.The.Time.2020.4K.MULTI.2160p.HDR.WEB.EAC3.Hevc-DDR.mkv torrent
Ghost.in.the.Shell.1995.MULTi.2160p.USA.Blu-ray.HDR.Atmos.7.1.HEVC-DDR.mkv torrent
London.Has.Fallen.2016.MULTi.2160p.BLURAY.HDR.DTS-X.7.1.HEVC-DDR.mkv torrent
Enola Holmes.2020.MULTi.2160p.HDR.WEB.DDP.5.1.HEVC-DDR.mkv torrent
The.Woman.2011.MULTi.2160p.Bluray.HDR.DTS-HDMA.5.1.HEVC-DDR.mkv torrent

ETTV Recommended Cam
The.Broken.Hearts.Gallery.2020.HDCAM.x264.LLG torrent
The Secrets We Keep 2020 HDCAM-C1NEM4 torrent

ETTV Recommended Foreign
Bloodstone (1988) 720p BluRay x264 Eng Subs [Dual Audio] [Hindi DD 2.0 - English 2.0] Exclusive By -=!Dr.STAR!=- torrent
Zombie Shark (2015) UNRATED 720p BluRay x264 Eng Subs [Dual Audio] [Hindi DD 2.0 - English 2.0] Exclusive By -=!Dr.STAR!=- torrent
For Greater Glory - The True Story Of Cristiada 2012 x264 720p Esub BluRay Dual Audio English Hindi GOPI SAHI torrent
Kehta Hai Yeh Dil 2020 x264 720p Hindi GOPI SAHI torrent
Sinbad : Beyond the Veil of Mists (2000) 720p WEBRip x264 Eng Subs [Dual Audio] [Hindi DD 2.0 - English 2.0] Exclusive By -=!Dr.STAR!=- torrent
The Myth 2005 x264 720p Esub BluRay Dual Audio English Hindi GOPI SAHI torrent

ETTV Recommended Music
Queen II - 1974 - mp3 - 320kbps - G&U torrent
Madonna - Immaculate Collection YERAYCITO MASTER SERIES XX torrent
VA - 100 Greatest 90s Pop Classics (2020) Mp3 320kbps [PMEDIA] ⭐️ torrent
[indie-folk] (2020) Bear's Den + Paul Frith - Fragments [FLAC] [DarkAngie] torrent
[prog-rock] (2020) Samurai - Samurai [Expanded & Remastered Edition] [FLAC] [DarkAngie] torrent
VA - The Ultimate Collection Seventies (2020) Mp3 320kbps [PMEDIA] ⭐️ torrent


Download Torrent "M.S. Dhoni The Untold Story (2016) Hindi (2160p Upscaled BluRayRip x265 HEV..."

IMDB Details
Description:

The untold story of Mahendra Singh Dhoni's journey from ticket collector to trophy collector - the world-cup-winning captain of the Indian Cricket Team.

Genre:

Biography, Drama, Sport

Download Torrent (Magnet)
Download Torrent (File)

Seeds: 9
Leechers: 0

Uploaded by:
Musafirboy


Category:
Movies > UltraHD/4K


Details
Title:M.S. Dhoni The Untold Story (2016) Hindi (2160p Upscaled BluRayRip x265 HEV...
Description:







M.S. Dhoni: The Untold Story (2020) Hindi UHD
2160p BluRayRip SDR x265 HEVC 10bit DDP 5.1 ESub Chapters - [Musafirboy]










:: Source ::
M.S. Dhoni: The Untold Story 2016 1080p Blu-ray AVC DTS-HD MA 5.1-WeTV [40.5 GB]


:: Encoder's Note ::
This is an Upscaled Encode from 1080p BluRay Remux Source, Enjoy





Media Information

General
Complete name : M.S. Dhoni The Untold Story (2016) Hindi (UHD 2160p BluRay SDR x265 10bit) - [Musafirboy].mkv
Format : Matroska
Format version : Version 4
File size : 6.67 GiB
Duration : 3 h 4 min
Overall bit rate : 5 173 kb/s
Encoded date : UTC 2020-06-24 20:14:54

Video
ID : 1
Format : HEVC
Format/Info : High Efficiency Video Coding
Format profile : Main [email protected]@Main
Codec ID : V_MPEGH/ISO/HEVC
Duration : 3 h 4 min
Bit rate : 4 430 kb/s
Width : 3 840 pixels
Height : 1 592 pixels
Display aspect ratio : 2.40:1
Frame rate mode : Constant
Frame rate : 24.000 FPS
Color space : YUV
Chroma subsampling : 4:2:0
Bit depth : 10 bits
Bits/(Pixel*Frame) : 0.030
Stream size : 5.71 GiB (86%)
Language : Hindi
Default : Yes
Forced : No
Color range : Limited
Color primaries : BT.709
Transfer characteristics : BT.709
Matrix coefficients : BT.709

Audio
ID : 2
Format : E-AC-3
Format/Info : Enhanced AC-3
Commercial name : Dolby Digital Plus
Codec ID : A_EAC3
Duration : 3 h 4 min
Bit rate mode : Constant
Bit rate : 640 kb/s
Channel(s) : 6 channels
Channel layout : L R C LFE Ls Rs
Sampling rate : 48.0 kHz
Frame rate : 31.250 FPS (1536 SPF)
Compression mode : Lossy
Stream size : 845 MiB (12%)
Language : Hindi
Service kind : Complete Main
Default : Yes
Forced : No

Subtitle
ID : 3
Format : UTF-8
Codec ID : S_TEXT/UTF8
Codec ID/Info : UTF-8 Plain Text
Language : English
Default : Yes
Forced : No

Chapters
00:00:00.000 : Movie Begins
00:05:56.500 : Dhoni & Family
00:16:20.000 : Dhonis Selection
00:28:22.208 : Mahi Maar Raha Hai
00:39:29.000 : Besabriyaan...♪
00:49:23.000 : Cooch Behar Trophy
00:59:46.042 : Helping Hand
01:08:13.042 : Railway Job Offered
01:17:55.417 : First Day Of Duty
01:26:47.083 : The Confrontation
01:30:28.292 : Parvah Nahin...♪
01:40:41.000 : Selected In Indian Team
01:49:23.542 : First Meeting
01:59:24.167 : Phir Kabhi...♪
02:02:38.417 : Priyanka Loves Dhoni
02:10:03.417 : Kaun Tujhe...♪
02:27:14.417 : Dhoni Meets Sakshi
02:35:54.000 : Jab Tak(i)...♪
02:43:22.167 : Will You Marry Me
02:46:46.000 : Jab Tak(ii)...♪
02:49:26.167 : The World Cup Winner
03:00:06.208 : End Credits









Category:Movies > UltraHD/4K
Lang:Hindi  Hindi
Total Size:6.67 GB
Info Hash:bcb965af442a4620878789fb1930d57348e8df6b
Added By:Musafirboy
Date Added:30-06-2020 08:49:57

  

Files

File List: 
 File Size
Encoded by Musafirboy.txt397.00 B
M.S. Dhoni The Untold Story (2016) Hindi (UHD 2160p BluRay SDR x265 10bit) - [Musafirboy].mkv6.67 GB



Comments

There are currently no comments. Be the first one to write something !