Hide Your IP Address when Downloading Torrents!
Your IP Address is 182.232.198.186. Location Thailand,
Your Internet Provider can see when you download torrents! Hide your IP Address with a VPN
ETTV warns: You should use VPN to hide your torrenting. Hide IP with VPN

Download "Batman vs Superman (2016) 1080p mHD Blu-ray AAC 5 1 MSubs Ultimate Edition -DDR"

Title:
Batman vs Superman (2016) 1080p mHD Blu-ray AAC 5 1 MSubs Ultimate Edition -DDR
Category:
Movies > HD 1080p
Language:
English
Total Size:
4.02 GB
Info Hash:
504bc6526dbf886d8974f561527bdd438e1e5c99
Added By:
DDR
Date Added:
4 years ago
  • Seeds: 20
  • Leechers: 13
  • Uploaded By: DDR
Uploaders Description



1080p mHD Blu-ray Rip x264

AAC 5.1 English Audio

English, French, Spanish, Portuguese & Thai Subtitles













Specs:
Source: BD50 @ DDR

Format                                   : Matroska
File size                                : 3.99 GiB
Duration                                 : 3h 2mn
Overall bit rate                         : 3 127 Kbps
Encoded date                             : UTC 2016-07-12 01:03:31

Video
Format                                   : AVC
Format profile                           : [email protected]
Duration                                 : 3h 2mn
Bit rate                                 : 2 920 Kbps
Width                                    : 1 920 pixels
Height                                   : 800 pixels
Display aspect ratio                     : 2.40:1
Frame rate mode                          : Constant
Frame rate                               : 23.976 (24000/1001) fps
Color space                              : YUV
Chroma subsampling                       : 4:2:0
Bit depth                                : 8 bits
Scan type                                : Progressive
Bits/(Pixel*Frame)                       : 0.079
Stream size                              : 3.72 GiB (93%)

Format                                   : Atmos / TrueHD
Format                                   : AAC
Format/Info                              : Advanced Audio Codec
Format profile                           : LC
Codec ID                                 : A_AAC
Duration                                 : 3h 2mn
Bit rate                                 : 192 Kbps
Channel(s)                               : 6 channels
Channel positions                        : Front: L C R, Side: L R, LFE
Sampling rate                            : 48.0 KHz
Frame rate                               : 46.875 fps (1024 spf)
Compression mode                         : Lossy
Delay relative to video                  : 9ms
Stream size                              : 250 MiB (6%)
Language                                 : English
Default                                  : Yes
Forced                                   : No




Chapters : YES - 16
SAMPLE Included

A DDR Exclusive Encode


File List:

(sample) Batman vs Superman (2016) 1080p mHD Blu-ray AAC 5 1 MSubs Ultimate Edition -DDR mkv
....
35 MB
Batman vs Superman (2016) 1080p mHD Blu-ray AAC 5 1 MSubs Ultimate Edition -DDR mkv
....
3.99 GB
Torrent Downloaded From ExtraTorrent cc txt
....
380.00 B