Hide Your IP Address when Downloading Torrents!
Your IP Address is 182.232.198.186. Location Thailand,
Your Internet Provider can see when you download torrents! Hide your IP Address with a VPN
ETTV warns: You should use VPN to hide your torrenting. Hide IP with VPN

Download "Interstellar (2014) 1080p Blu-Ray x264 DTSHD 5 1 -DDR"

Title:
Interstellar (2014) 1080p Blu-Ray x264 DTSHD 5 1 -DDR
Category:
Movies > HD 1080p
Language:
English
Total Size:
16.33 GB
Info Hash:
2a0f760c8865c171915e4e751953d6e8253e278a
Added By:
DDR
Date Added:
4 years ago
  • Seeds: 12
  • Leechers: 2
  • Uploaded By: DDR
Uploaders Description



HQ 1080p Blu-Ray Rip x264

English DTSHD-MA 5.1 Audio

English/French/Spanish/Portuguese Subs

SCREENSHOTS


SPECS

Source: Blu-ray

Format : Matroska
File size : 16.2 GiB
Duration : 2 h 49 min
Overall bit rate : 13.7 Mb/s

Video
Format : AVC
Format/Info : Advanced Video Codec
Format profile : [email protected]
Format settings, CABAC : Yes
Format settings, ReFrames : 5 frames
Codec ID : V_MPEG4/ISO/AVC
Duration : 2 h 49 min
Bit rate : 10.0 Mb/s
Width : 1 920 pixels
Height : 800 pixels
Display aspect ratio : 2.40:1
Frame rate mode : Constant
Frame rate : 23.976 (24000/1001) FPS
Color space : YUV
Chroma subsampling : 4:2:0
Bit depth : 8 bits
Scan type : Progressive
Bits/(Pixel*Frame) : 0.272
Stream size : 11.8 GiB (73%)
Default : Yes
Forced : No
Color range : Limited
Color primaries : BT.709
Transfer characteristics : BT.709
Matrix coefficients : BT.709

Audio #1
Format : DTS
Format/Info : Digital Theater Systems
Format profile : MA / Core
Mode : 16
Format settings, Endianness : Big
Codec ID : A_DTS
Duration : 2 h 49 min
Bit rate mode : Variable / Constant
Bit rate : 3 693 kb/s / 1 509 kb/s
Channel(s) : 6 channels
Channel positions : Front: L C R, Side: L R, LFE
Sampling rate : 48.0 kHz
Frame rate : 93.750 FPS (512 spf)
Bit depth : 24 bits
Compression mode : Lossless / Lossy
Stream size : 4.36 GiB (27%)
Language : English
Default : Yes
Forced : No

Chapters : YES
SAMPLE Included

A DDR Exclusive Encode


File List:

A DDR Release !!! txt
....
287.00 B
Interstellar (2014) 1080p Blu-Ray x264 DTSHD -DDR mkv
....
16.24 GB
sample-Interstellar (2014) 1080p Blu-Ray x264 DTSHD -DDR mkv
....
95 MB
Torrent downloaded from ExtraTorrent cc txt
....
28.00 B