Hide Your IP Address when Downloading Torrents!
Your IP Address is 182.232.198.186. Location Thailand,
Your Internet Provider can see when you download torrents! Hide your IP Address with a VPN
ETTV warns: You should use VPN to hide your torrenting. Hide IP with VPN

Download "The Hateful Eight 2015 2160p REMUX DCPRip Eng -DDR mkv"

Title:
The Hateful Eight 2015 2160p REMUX DCPRip Eng -DDR mkv
Category:
Movies > BluRay Disc/Remux
Language:
English
Total Size:
38.06 GB
Info Hash:
819affa4490e49d4bc30699a0415fe0dc4174cb7
Added By:
DDR
Date Added:
4 years ago
  • Seeds: 26
  • Leechers: 24
  • Uploaded By: DDR
Uploaders Description




** Hateful Eight **

** 2015**

** 2160p UHD 4K / DCPrip / x264

English DTS-HDMA 5.1 **


** English + SHD + Russian Subtitle(s) **



[ SCREENS ]



[ Info ]

Source : DCP Rip @ UHDClub
General
Format : Matroska
File size : 38.1 GiB
Duration : 2 h 40 min
Overall bit rate : 33.9 Mb/s

Video
Format : AVC
Format/Info : Advanced Video Codec
Format profile : [email protected]
Format settings, CABAC : Yes
Format settings, ReFrames : 8 frames
Codec ID : V_MPEG4/ISO/AVC
Duration : 2 h 40 min
Bit rate : 30.3 Mb/s
Width : 3 840 pixels
Height : 1 396 pixels
Display aspect ratio : 2.751
Frame rate mode : Constant
Frame rate : 25.000 FPS
Color space : YUV
Chroma subsampling : 4:2:0
Bit depth : 8 bits
Scan type : Progressive
Bits/(Pixel*Frame) : 0.226
Stream size : 34.1 GiB (90%)
Title : The Hateful Eight (2015)
Language : English
Default : Yes
Forced : No

Audio
Format : DTS
Format/Info : Digital Theater Systems
Format profile : MA / Core
Mode : 16
Format settings, Endianness : Big
Codec ID : A_DTS
Duration : 2 h 40 min
Bit rate mode : Variable / Constant
Bit rate : 3 550 kb/s / 1 509 kb/s
Channel(s) : 6 channels
Channel positions : Front: L C R, Side: L R, LFE
Sampling rate : 48.0 kHz
Frame rate : 93.750 FPS (512 spf)
Bit depth : 24 bits
Compression mode : Lossless / Lossy
Stream size : 3.99 GiB (10%)
Title : DTS-HD MA 5.1 - Blu-ray
Language : English
Default : No
Forced : No

Chapters : YES

[ Ultra High Speed Seeding !!! ]



File List:

The Hateful Eight 2015 2160p REMUX DCPRip Eng -DDR mkv
....
38.06 GB