Hide Your IP Address when Downloading Torrents!
Your IP Address is 182.232.198.186. Location Thailand,
Your Internet Provider can see when you download torrents! Hide your IP Address with a VPN
ETTV warns: You should use VPN to hide your torrenting. Hide IP with VPN

Download "Lucy 2014 2160p 4K UHD BluRay HDR10 HEVC BT2020 DTS-HD 5 1 Subs -DDR"

Title:
Lucy 2014 2160p 4K UHD BluRay HDR10 HEVC BT2020 DTS-HD 5 1 Subs -DDR
Category:
Movies > UltraHD/4K
Language:
English
Total Size:
22.06 GB
Info Hash:
04a8bd0bda202a2355c1d62fa1970f91ca42596b
Added By:
DDR
Date Added:
4 years ago
  • Seeds: 34
  • Leechers: 12
  • Uploaded By: DDR
Uploaders Description



4K UltraHD HDR10 HEVC 10 Bits BT2020

English DTSHD-MA 5.1 Audio

English & French subs

Download Only If you have a 4K HDR TV but...


You can plays this on a non HDR 4K TV or Monitor with the following tweaks:

- Install MadVR latest version
- Install PotPlayer or MPC-BE or MPC HC
- Latest LAV Filter

Setup MADVR properties to correspond to your display caracteristics.

Set the renderer in player (MPC or Pot) to MADVR
Set the filter to MADVR

Without the above tweakings, On non-HDR display, this rip will look very DULL (nearly like a grey black and white movie)
The above tweak will give you a lots better quality than a BT709 rip on a non-HDR 4K monitor.
BUT YOU WILL NEVER GET THE SAME SUPERIOR QUALITY OF A TRUE HDR10 TV

because only HDR10 TV can show nits from 0.0005 to 1000, which is required for best viewing of this rip.
Normal Non-HDR 4K TV are limited to arround 300 to 400 nits in the best cases and non 4K monitor & TV are limited to max 200 nits.

Even though some are claiming that you can get 1000 nits HDR on a non HDR display, this is not true and a technical BS.
Your TV or Monitor is designed with 200 nits from the drawing board cannot miraculously display 1000 nits.

Please test your setup with the included sample before downloading.

This rip has been play tested on SUHD Samsung TV via a USB drive directly plugged on the TV.

SCREENSHOTS

As of now it is not possible to take screenshots from a HDR playback.
One of the reason is that there is not yet any HDR 4K PC monitor on the market but they are coming (Asus LG ACER and others had some on show in CES 2017 last month).

Thus download the sample to check if the quality is good for you.  

Here is a print-screen from a playback via MADVR on the PC monitor, which is limited to 400 nits.


 
SPECS


Source:4H UHD HDR 10 BluRay

Format                                   : Matroska
File size                                : 21.9 GiB
Duration                                 : 1 h 29 min
Overall bit rate                         : 35.1 Mb/s
Encoded date                             : UTC 2017-02-09 21:31:19

Video
Format                                   : HEVC
Format/Info                              : High Efficiency Video Coding
Format profile                           : Main [email protected]@Main
Bit rate                                 : 30.8 Mb/s
Width                                    : 3 840 pixels
Height                                   : 1 600 pixels
Display aspect ratio                     : 2.40:1
Frame rate mode                          : Constant
Frame rate                               : 23.976 (23976/1000) FPS
Chroma subsampling                       : 4:2:0 (Type 2)
Bit depth                                : 10 bits
Stream size                              : 19.2 GiB (88%)
Writing library                          : x265 10bit
Color range                              : Limited
Color primaries                          : BT.2020
Transfer characteristics                 : SMPTE ST 2084
Matrix coefficients                      : BT.2020 non-constant

Maximum Content Light Level              : 1000 cd/m2
Maximum Frame-Average Light Level        : 400 cd/m2


Audio
Format                                   : DTS
Format profile                           : MA / ES Matrix / Core
Bit rate                                 : 4 284 kb/s / 1 509 kb/s
Channel(s)                               : 6 channels
Bit depth                                : 24 bits
Stream size                              : 2.67 GiB (12%)
Language                                 : English

Chapters                                 : YES


SAMPLE Included

A DDR Exclusive Encode


File List:

A DDR Release !!! txt
....
287.00 B
Lucy 2014 2160p 4K UHD BluRay HDR10 HEVC BT2020 DTS-HD 5 1 Subs -DDR mkv
....
21.92 GB
sample-Lucy 2014 2160p 4K UHD BluRay HDR10 HEVC BT2020 DTS-HD 5 1 Subs -DDR mkv
....
140 MB
Torrent downloaded from ExtraTorrent cc txt
....
28.00 B