Hide Your IP Address when Downloading Torrents!
Your IP Address is 182.232.198.186. Location Thailand,
Your Internet Provider can see when you download torrents! Hide your IP Address with a VPN
ETTV warns: You should use VPN to hide your torrenting. Hide IP with VPN

Download "Arrival 2016 2160p 4K UHD Bluray HEVC Multi DTSHD 7 1 -DDR"

Title:
Arrival 2016 2160p 4K UHD Bluray HEVC Multi DTSHD 7 1 -DDR
Category:
Movies > UltraHD/4K
Language:
English
Total Size:
23.56 GB
Info Hash:
ed25a5b2e86b2a4873fac6e69254b0b413641b1d
Added By:
DDR
Date Added:
4 years ago
  • Seeds: 62
  • Leechers: 36
  • Uploaded By: DDR
Uploaders Description




2160p 4K UltraHD  BluRay Rip
HEVC x265 BT709

English DTSHD-MA 7.1 Audio
French DDS 5.1 Audio
Spanish DDS 5.1 Audio

English, French & Spanish Subs

SCREENSHOTS


SPECS


Source : 4K UHD BluRay @ Zeus (Thanks)
Format                                   : Matroska
File size                                : 23.5 GiB
Duration                                 : 1 h 56 min
Overall bit rate                         : 28.9 Mb/s

Video
Format                                   : HEVC
Format profile                           : Main [email protected]@Main
Bit rate                                 : 23.3 Mb/s
Width                                    : 3 840 pixels
Height                                   : 1 600 pixels
Display aspect ratio                     : 2.40:1
Frame rate                               : 23.976 (24000/1001) FPS
Bit depth                                : 8 bits
Stream size                              : 18.9 GiB (81%)
Color primaries                          : BT.709

Audio #1
Format                                   : DTS MA / Core
Bit rate                                 : 4 207 kb/s / 1 509 kb/s
Channel(s)                               : 8 channels
Stream size                              : 3.42 GiB (15%)
Language                                 : English

Audio #2
Format                                   : AC-3
Bit rate                                 : 640 kb/s
Channel(s)                               : 6 channels
Bit depth                                : 16 bits
Stream size                              : 533 MiB (2%)
Language                                 : French

Audio #3
Format                                   : AC-3
Bit rate                                 : 640 kb/s
Channel(s)                               : 6 channels
Bit depth                                : 16 bits
Stream size                              : 533 MiB (2%)
Language                                 : Spanish

Chapters                                 : YES


SAMPLE Included

A DDR Exclusive Release




File List:

A DDR Release !!! txt
....
287.00 B
Arrival 2016 2160p 4K UHD Bluray HEVC Multi DTSHD 7 1 -DDR mkv
....
23.46 GB
sample-Arrival 2016 2160p 4K UHD Bluray HEVC Multi DTSHD 7 1 -DDR mkv
....
104 MB
Torrent downloaded from ExtraTorrent cc txt
....
28.00 B