Hide Your IP Address when Downloading Torrents!
Your IP Address is . Location
Your Internet Provider can see when you download torrents! Hide your IP Address with a VPN
ETTV warns: You should use VPN to hide your torrenting. Hide IP with VPN

Download "Human (2022) 480p Hindi Season 1 (EP 1 TO 10) WEB-HDRip x264 AAC DD 2 0 ESub By Full4Movies"

Title:
Human (2022) 480p Hindi Season 1 (EP 1 TO 10) WEB-HDRip x264 AAC DD 2 0 ESub By Full4Movies
Category:
TV > SD/X264/H264
Language:
Hindi
Total Size:
1.40 GB
Info Hash:
3e47636e7623ea654b61427b99103ef9191b8e6e
Added By:
full4movies
Date Added:
2 days ago
  • Seeds: 149
  • Leechers: 224
  • Uploaded By: full4movies
Uploaders Description


Visit Us = https://www.full4movies.sbs/



General
Complete name                  : Human (2022) 480p Hindi Season 1 (EP 1 TO 10) WEB-HDRip x264 AAC DD 2.0 ESub By Full4Movies
Format                         : Matroska
Format version                 : Version 4
File size                      : 154 MiB
Duration                       : 48 min 40 s
Overall bit rate               : 442 kb/s
Encoded date                   : UTC 2022-01-14 08:59:22 / UTC 
Writing application            : mkvmerge v8.3.0 ('Over the Horizon') 64bit
Writing library                : libebml v1.3.1 + libmatroska v1.4.2 / Lavf55.12.0
Attachments                    : 383845052472320.jpg

Video
ID                             : 1
Format                         : AVC
Format/Info                    : Advanced Video Codec
Format profile                 : [email protected]
Format settings                : CABAC / 4 Ref Frames
Format settings, CABAC         : Yes
Format settings, Reference fra : 4 frames
Codec ID                       : V_MPEG4/ISO/AVC
Duration                       : 48 min 40 s
Bit rate                       : 400 kb/s
Width                          : 720 pixels
Height                         : 360 pixels
Display aspect ratio           : 2.000
Frame rate mode                : Constant
Frame rate                     : 25.000 FPS
Color space                    : YUV
Chroma subsampling             : 4:2:0
Bit depth                      : 8 bits
Scan type                      : Progressive
Bits/(Pixel*Frame)             : 0.062
Stream size                    : 139 MiB (90%)
Writing library                : x264 core 142 r2479 dd79a61
Default                        : Yes
Forced                         : No
Color range                    : Limited
Color primaries                : BT.709
Transfer characteristics       : BT.709
Matrix coefficients            : BT.709

Audio
ID                             : 2
Format                         : AAC LC SBR
Format/Info                    : Advanced Audio Codec Low Complexity with Spectral Band Replication
Commercial name                : HE-AAC
Format settings                : NBC
Codec ID                       : A_AAC-5
Duration                       : 48 min 40 s
Bit rate                       : 40.0 kb/s
Channel(s)                     : 2 channels
Channel layout                 : L R
Sampling rate                  : 48.0 kHz
Frame rate                     : 23.438 FPS (2048 SPF)
Compression mode               : Lossy
Delay relative to video        : -105 ms
Stream size                    : 13.9 MiB (9%)
Language                       : Hindi
Default                        : Yes
Forced                         : No

Text
ID                             : 3
Format                         : ASS
Codec ID                       : S_TEXT/ASS
Codec ID/Info                  : Advanced Sub Station Alpha
Duration                       : 46 min 23 s
Bit rate                       : 114 b/s
Count of elements              : 734
Compression mode               : Lossless
Stream size                    : 38.9 KiB (0%)
Language                       : English
Default                        : No
Forced                         : No

Screen Shoots










File List:

Human s01e01 the saviour480p dsnp web-dl Hin dd+2 0 x264-Full4Movies mkv
....
154 MB
Human s01e02 pain-killer 480p dsnp web-dl Hin dd+2 0 x264-Full4Movies mkv
....
138 MB
Human s01e03 secret lives 480p dsnp web-dl Hin dd+2 0 x264-Full4Movies mkv
....
137 MB
Human s01e04 the red truck 480p dsnp web-dl Hin dd+2 0 x264-Full4Movies mkv
....
139 MB
Human s01e05 not my baby 480p dsnp web-dl Hin dd+2 0 x264-Full4Movies mkv
....
134 MB
Human s01e06 till death do us apart 480p dsnp web-dl Hin dd+2 0 x264-Full4Movies mkv
....
142 MB
Human s01e07 a lick of fire 480p dsnp web-dl Hin dd+2 0 x264-Full4Movies mkv
....
138 MB
Human s01e08 victory 480p dsnp web-dl Hin dd+2 0 x264-Full4Movies mkv
....
134 MB
Human s01e09 freedoms price 480p dsnp web-dl Hin dd+2 0 x264-Full4Movies mkv
....
145 MB
Human s01e10 and justice for all 480p dsnp web-dl Hin dd+2 0 x264-Full4Movies mkv
....
171 MB