Hide Your IP Address when Downloading Torrents!
Your IP Address is . Location
Your Internet Provider can see when you download torrents! Hide your IP Address with a VPN
ETTV warns: You should use VPN to hide your torrenting. Hide IP with VPN

Download "Just Short of Perfect (2021) [Hindi Dub] 720p WEB-DLRip Saicord"

Title:
Just Short of Perfect (2021) [Hindi Dub] 720p WEB-DLRip Saicord
Category:
Movies > HD 720p
Language:
Hindi
Total Size:
1.54 GB
Info Hash:
cbb2cea7103cc5f1f176b73afe80c2c4ca24ff92
Added By:
MelbetCinema7
Date Added:
1 week ago
  • Seeds: 1
  • Leechers: 1
  • Uploaded By: MelbetCinema7
Uploaders Description









Video

ID                                       : 1

Format                                   : AVC

Format/Info                              : Advanced Video Codec

Format profile                           : [email protected]

Format settings                          : CABAC / 3 Ref Frames

Format settings, CABAC                   : Yes

Format settings, Reference frames        : 3 frames

Format settings, GOP                     : M=1, N=30

Codec ID                                 : avc1

Codec ID/Info                            : Advanced Video Coding

Duration                                 : 1 h 36 min

Bit rate                                 : 2 095 kb/s

Width                                    : 1 280 pixels

Height                                   : 720 pixels

Display aspect ratio                     : 16:9

Frame rate mode                          : Constant

Frame rate                               : 23.976 (24000/1001) FPS

Color space                              : YUV

Chroma subsampling                       : 4:2:0

Bit depth                                : 8 bits

Scan type                                : Progressive

Bits/(Pixel*Frame)                       : 0.095

Stream size                              : 1.41 GiB (92%)

Language                                 : English

Encoded date                             : UTC 2022-01-10 19:56:03

Tagged date                              : UTC 2022-01-10 19:56:03

Codec configuration box                  : avcC


Audio

ID                                       : 2

Format                                   : AAC LC

Format/Info                              : Advanced Audio Codec Low Complexity

Codec ID                                 : mp4a-40-2

Duration                                 : 1 h 36 min

Source duration                          : 1 h 36 min

Bit rate mode                            : Variable

Bit rate                                 : 192 kb/s

Maximum bit rate                         : 491 kb/s

Channel(s)                               : 2 channels

Channel layout                           : L R

Sampling rate                            : 48.0 kHz

Frame rate                               : 46.875 FPS (1024 SPF)

Compression mode                         : Lossy

Stream size                              : 131 MiB (8%)

Source stream size                       : 131 MiB (8%)

Language                                 : English

Encoded date                             : UTC 2022-01-10 19:56:03

Tagged date                              : UTC 2022-01-10 19:56:03



File List:

Just Short of Perfect (2021) [Hindi Dub] 720p WEB-DLRip Saicord mp4
....
1.54 GB