Hide Your IP Address when Downloading Torrents!
Your IP Address is . Location
Your Internet Provider can see when you download torrents! Hide your IP Address with a VPN
ETTV warns: You should use VPN to hide your torrenting. Hide IP with VPN

Download "Pushpa The Rise 2021 Part 1 x264 720p AmaZoNe WebHD Esub AAC Hindi THE GOPI SAHI"

Title:
Pushpa The Rise 2021 Part 1 x264 720p AmaZoNe WebHD Esub AAC Hindi THE GOPI SAHI
Category:
Movies > Bollywood
Language:
Hindi
Total Size:
1.22 GB
Info Hash:
309bc7cac8a46331aef77b37a5fdac6deca2d379
Added By:
GOPISAHI
Date Added:
4 days ago
  • Seeds: 387
  • Leechers: 727
  • Uploaded By: GOPISAHI
Uploaders Description
Join Us On TeleGram

https://t.me/gopisahit



Pushpa The Rise 2021 Part 1 x264 720p AmaZoNe WebHD Esub AAC Hindi THE GOPI SAHI

Format                         : Matroska
Format version                 : Version 4
File size                      : 1.22 GiB
Duration                       : 2 h 55 min
Overall bit rate               : 997 kb/s
Movie name                     : Pushpa The Rise 2021 Part 1 GOPI SAHI
Encoded date                   : UTC 2022-01-14 07:27:07

Video
ID                             : 1
Format                         : AVC
Format/Info                    : Advanced Video Codec
Format profile                 : [email protected]
Format settings                : CABAC / 6 Ref Frames
Format settings, CABAC         : Yes
Format settings, Reference fra : 6 frames
Codec ID                       : V_MPEG4/ISO/AVC
Duration                       : 2 h 55 min
Bit rate                       : 899 kb/s
Width                          : 1 280 pixels
Height                         : 534 pixels
Display aspect ratio           : 2.40:1
Frame rate mode                : Constant
Frame rate                     : 24.000 FPS
Color space                    : YUV
Chroma subsampling             : 4:2:0
Bit depth                      : 8 bits
Scan type                      : Progressive
Bits/(Pixel*Frame)             : 0.055
Stream size                    : 1.10 GiB (90%)
Title                          : GOPI SAHI
Writing library                : x264 core 163 r3059 b684ebe0

Audio
ID                             : 2
Format                         : AAC LC
Format/Info                    : Advanced Audio Codec Low Complexity
Codec ID                       : A_AAC-2
Duration                       : 2 h 55 min
Bit rate                       : 96.0 kb/s
Channel(s)                     : 2 channels
Channel layout                 : L R
Sampling rate                  : 48.0 kHz
Frame rate                     : 46.875 FPS (1024 SPF)
Compression mode               : Lossy
Delay relative to video        : -21 ms
Stream size                    : 121 MiB (10%)
Title                          : GOPI SAHI
Language                       : Hindi
Default                        : Yes
Forced                         : No

Text
ID                             : 3
Format                         : UTF-8
Codec ID                       : S_TEXT/UTF8
Codec ID/Info                  : UTF-8 Plain Text
Duration                       : 2 h 50 min
Bit rate                       : 65 b/s
Count of elements              : 2067
Stream size                    : 81.5 KiB (0%)
Title                          : GOPI SAHI
Language                       : English
Default                        : Yes
Forced                         : No

Menu
00:00:00.000                   : :Studio Logo
00:00:47.042                   : :Scene 2
00:06:57.000                   : :Title Sequence
00:07:03.125                   : :Scene 4
00:12:16.000                   : :Scene 5
00:17:41.083                   : :Scene 6
00:26:24.000                   : :Scene 7
00:30:31.000                   : :Scene 8
00:38:19.042                   : :Scene 9
00:45:12.042                   : :Scene 10
00:52:24.167                   : :Scene 11
00:56:40.083                   : :Scene 12
01:04:01.042                   : :Scene 13
01:10:13.083                   : :Scene 14
01:16:06.042                   : :Scene 15
01:25:04.208                   : :Scene 16
01:32:25.042                   : :Scene 17
01:39:53.042                   : :Scene 18
01:49:27.125                   : :Scene 19
01:56:31.125                   : :Scene 20
01:57:53.042                   : :Scene 21
02:03:06.208                   : :Scene 22
02:03:09.042                   : :Scene 23
02:09:12.125                   : :Scene 24
02:15:05.125                   : :Scene 25
02:21:59.125                   : :Scene 26
02:27:22.042                   : :Scene 27
02:32:15.000                   : :Scene 28
02:35:28.083                   : :Scene 29
02:41:19.000                   : :Scene 30
02:52:37.042                   : :End Credits




File List:

Pushpa The Rise 2021 Part 1 x264 720p AmaZoNe WebHD Esub AAC Hindi THE GOPI SAHI mkv
....
1.22 GB