Hide Your IP Address when Downloading Torrents!
Your IP Address is . Location
Your Internet Provider can see when you download torrents! Hide your IP Address with a VPN
ETTV warns: You should use VPN to hide your torrenting. Hide IP with VPN

Download "Scream (2022) 720p English HDCAM x264 AAC 2 0 By Full4Movies"

Title:
Scream (2022) 720p English HDCAM x264 AAC 2 0 By Full4Movies
Category:
Movies > CAM/TS
Language:
English
Total Size:
1.02 GB
Info Hash:
bb083ee26e6a0daaef7501774431fbead4eb4dd4
Added By:
full4movies
Date Added:
5 days ago
  • Seeds: 2306
  • Leechers: 3505
  • Uploaded By: full4movies
Uploaders Description


Visit Us = https://www.full4movies.sbs/



General
Complete name                  : Scream (2022) 720p English HDCAM x264 AAC 2.0 By Full4Movies.mkv
Format                         : Matroska
Format version                 : Version 4
File size                      : 1.02 GiB
Duration                       : 1 h 49 min
Overall bit rate               : 1 330 kb/s
Encoded date                   : UTC 2022-01-13 15:51:40 / UTC 
Writing application            : mkvmerge v8.3.0 ('Over the Horizon') 64bit
Writing library                : libebml v1.3.1 + libmatroska v1.4.2 / Lavf55.12.0
Attachments                    : 383845052472320.jpg

Video
ID                             : 1
Format                         : AVC
Format/Info                    : Advanced Video Codec
Format profile                 : [email protected]
Format settings                : CABAC / 4 Ref Frames
Format settings, CABAC         : Yes
Format settings, Reference fra : 4 frames
Codec ID                       : V_MPEG4/ISO/AVC
Duration                       : 1 h 49 min
Bit rate                       : 1 200 kb/s
Width                          : 1 280 pixels
Height                         : 496 pixels
Display aspect ratio           : 2.581
Frame rate mode                : Constant
Frame rate                     : 23.976 (24000/1001) FPS
Color space                    : YUV
Chroma subsampling             : 4:2:0
Bit depth                      : 8 bits
Scan type                      : Progressive
Bits/(Pixel*Frame)             : 0.079
Stream size                    : 942 MiB (90%)
Writing library                : x264 core 142 r2479 dd79a61
Default                        : Yes
Forced                         : No
Color range                    : Limited
Color primaries                : BT.709
Transfer characteristics       : BT.709
Matrix coefficients            : BT.709

Audio
ID                             : 2
Format                         : AAC LC SBR
Format/Info                    : Advanced Audio Codec Low Complexity with Spectral Band Replication
Commercial name                : HE-AAC
Format settings                : NBC
Codec ID                       : A_AAC-5
Duration                       : 1 h 49 min
Bit rate                       : 128 kb/s
Channel(s)                     : 2 channels
Channel layout                 : L R
Sampling rate                  : 48.0 kHz
Frame rate                     : 23.438 FPS (2048 SPF)
Compression mode               : Lossy
Delay relative to video        : -105 ms
Stream size                    : 101 MiB (10%)
Default                        : Yes
Forced                         : No

Screen Shoots










File List:

Scream (2022) 720p English HDCAM x264 AAC 2 0 By Full4Movies mkv
....
1.02 GB