Hide Your IP Address when Downloading Torrents!
Your IP Address is . Location
Your Internet Provider can see when you download torrents! Hide your IP Address with a VPN
ETTV warns: You should use VPN to hide your torrenting. Hide IP with VPN

Download "Hanma Baki : Son Of Ogre [2021] 1080p NF WebRip x265 DDP 5 1 Kira [SEV]"

Title:
Hanma Baki : Son Of Ogre [2021] 1080p NF WebRip x265 DDP 5 1 Kira [SEV]
Category:
Anime > Dubbed/Subbed
Language:
Japanese
Total Size:
4.92 GB
Info Hash:
a54526963266e1129bb7f50cfff6497e6a9067e0
Added By:
D0ct0rLew
Date Added:
1 week ago
  • Seeds: 48
  • Leechers: 23
  • Uploaded By: D0ct0rLew
Uploaders Description



Screenshot's



Media Information
General
Unique ID                   : 277064425668696359976952553009281538003 (0xD070AADA33650F352B580102FB9497D3)
Complete name               : Hanma Baki - Son Of Ogre - 01 - The World's Strongest Senior 1080p NF WebRip x265 DDP 5.1 Kira [SEV].mkv
Format                      : Matroska
Format version              : Version 4
File size                   : 378 MiB
Duration                    : 24 min 41 s
Overall bit rate            : 2 141 kb/s
Movie name                  : Hanma Baki : Son Of Ogre : 01 : The World's Strongest Senior
Encoded date                : UTC 2022-01-04 08:52:27
Writing application         : mkvmerge v64.0.0 ('Willows') 64-bit
Writing library             : libebml v1.4.2 + libmatroska v1.6.4

Video
ID                          : 1
Format                      : HEVC
Format/Info                 : High Efficiency Video Coding
Format profile              : Main [email protected]@Main
Codec ID                    : V_MPEGH/ISO/HEVC
Duration                    : 24 min 41 s
Bit rate                    : 1 499 kb/s
Width                       : 1 920 pixels
Height                      : 1 080 pixels
Display aspect ratio        : 16:9
Frame rate mode             : Constant
Frame rate                  : 23.976 (24000/1001) FPS
Color space                 : YUV
Chroma subsampling          : 4:2:0
Bit depth                   : 10 bits
Bits/(Pixel*Frame)          : 0.030
Stream size                 : 265 MiB (70%)
Title                       : Hanma Baki : Son Of Ogre : 01 : The World's Strongest Senior
Writing library             : x265 3.5+20-17839cc0d:[Windows][MSVC 1930][64 bit] 10bit
Encoding settings           : cpuid=1111039 / frame-threads=2 / numa-pools=4 / wpp / no-pmode / no-pme / no-psnr / no-ssim / log-level=2 / input-csp=1 / input-res=1920x1080 / interlace=0 / total-frames=35528 / level-idc=0 / high-tier=1 / uhd-bd=0 / ref=4 / no-allow-non-conformance / no-repeat-headers / annexb / no-aud / no-eob / no-eos / no-hrd / info / hash=0 / no-temporal-layers / open-gop / min-keyint=23 / keyint=250 / gop-lookahead=0 / bframes=8 / b-adapt=0 / b-pyramid / bframe-bias=0 / rc-lookahead=100 / lookahead-slices=4 / scenecut=40 / no-hist-scenecut / radl=0 / no-splice / no-intra-refresh / ctu=64 / min-cu-size=8 / no-rect / no-amp / max-tu-size=32 / tu-inter-depth=1 / tu-intra-depth=1 / limit-tu=0 / rdoq-level=2 / dynamic-rd=0.00 / no-ssim-rd / signhide / no-tskip / nr-intra=0 / nr-inter=0 / no-constrained-intra / no-strong-intra-smoothing / max-merge=3 / limit-refs=3 / limit-modes / me=3 / subme=7 / merange=92 / temporal-mvp / no-frame-dup / no-hme / weightp / no-weightb / no-analyze-src-pics / deblock=0:0 / sao / no-sao-non-deblock / rd=4 / selective-sao=4 / no-early-skip / rskip / no-fast-intra / no-tskip-fast / no-cu-lossless / no-b-intra / no-splitrd-skip / rdpenalty=0 / psy-rd=1.30 / psy-rdoq=1.00 / no-rd-refine / no-lossless / cbqpoffs=0 / crqpoffs=0 / rc=abr / bitrate=1500 / qcomp=0.60 / qpstep=4 / stats-write=0 / stats-read=2 / cplxblur=20.0 / qblur=0.5 / ipratio=1.40 / pbratio=1.30 / aq-mode=3 / aq-strength=1.10 / cutree / zone-count=0 / no-strict-cbr / qg-size=32 / no-rc-grain / qpmax=69 / qpmin=0 / no-const-vbv / sar=0 / overscan=0 / videoformat=5 / range=0 / colorprim=2 / transfer=2 / colormatrix=2 / chromaloc=0 / display-window=0 / cll=0,0 / min-luma=0 / max-luma=1023 / log2-max-poc-lsb=8 / vui-timing-info / vui-hrd-info / slices=1 / no-opt-qp-pps / no-opt-ref-list-length-pps / no-multi-pass-opt-rps / scenecut-bias=0.05 / hist-threshold=0.03 / no-opt-cu-delta-qp / no-aq-motion / no-hdr10 / no-hdr10-opt / no-dhdr10-opt / no-idr-recovery-sei / analysis-reuse-level=0 / analysis-save-reuse-level=0 / analysis-load-reuse-level=0 / scale-factor=0 / refine-intra=0 / refine-inter=0 / refine-mv=1 / refine-ctu-distortion=0 / no-limit-sao / ctu-info=0 / no-lowpass-dct / refine-analysis-type=0 / copy-pic=1 / max-ausize-factor=1.0 / no-dynamic-refine / no-single-sei / no-hevc-aq / no-svt / no-field / qp-adaptation-range=1.00 / scenecut-aware-qp=0conformance-window-offsets / right=0 / bottom=0 / decoder-max-rate=0 / no-vbv-live-multi-pass
Language                    : Japanese
Default                     : Yes
Forced                      : No

Audio
ID                          : 2
Format                      : E-AC-3
Format/Info                 : Enhanced AC-3
Commercial name             : Dolby Digital Plus
Codec ID                    : A_EAC3
Duration                    : 24 min 41 s
Bit rate mode               : Constant
Bit rate                    : 640 kb/s
Channel(s)                  : 6 channels
Channel layout              : L R C LFE Ls Rs
Sampling rate               : 48.0 kHz
Frame rate                  : 31.250 FPS (1536 SPF)
Compression mode            : Lossy
Stream size                 : 113 MiB (30%)
Title                       : Japanese E-AC-3 DDP 5.1 @ 640 Kbps
Language                    : Japanese
Service kind                : Complete Main
Default                     : Yes
Forced                      : No

Text
ID                          : 3
Format                      : UTF-8
Codec ID                    : S_TEXT/UTF8
Codec ID/Info               : UTF-8 Plain Text
Duration                    : 22 min 9 s
Bit rate                    : 57 b/s
Count of elements           : 311
Stream size                 : 9.35 KiB (0%)
Title                       : English SRT
Language                    : English
Default                     : Yes
Forced                      : No

Menu
00:22:24.000                : en:End Credits


Source Information
Baki.Hanma.S01.1080p.NF.WEB-DL.DDP5.1.x264-NPMS (8.73 GB)


We have no issue with individuals posting or re-uploading our torrents on a platform we aren't on. However, if this is something you'd like to do, please do so in a 'as-is' format. We ask that you do not create a new torrent, include all descriptions you see above including the SEV logo, tags, notes and screenshots. If you'd like to become a permanent poster on a website we don't post to, feel free to get in contact with a Sublime Encoded Video member.

We are recruiting/training new members for SEV & seedbox providers as well as people to help out with subtitles.
As you already know, we deliver quality, so you know the standard.
If you're interested, feel free to contact any of the team members.




File List:

5 Hanma Baki - Son Of Ogre [2021] 1080p NF WebRip x265 DDP 5 1 Kira [SEV]/Hanma Baki - Son Of Ogre - 01 - The World's Strongest Senior 1080p NF WebRip x265 DDP 5 1 Kira [SEV] mkv
....
378 MB
5 Hanma Baki - Son Of Ogre [2021] 1080p NF WebRip x265 DDP 5 1 Kira [SEV]/Hanma Baki - Son Of Ogre - 02 - Mixed Species' Martial Arts 1080p NF WebRip x265 DDP 5 1 Kira [SEV] mkv
....
436 MB
5 Hanma Baki - Son Of Ogre [2021] 1080p NF WebRip x265 DDP 5 1 Kira [SEV]/Hanma Baki - Son Of Ogre - 03 - Prison And Hell 1080p NF WebRip x265 DDP 5 1 Kira [SEV] mkv
....
379 MB
5 Hanma Baki - Son Of Ogre [2021] 1080p NF WebRip x265 DDP 5 1 Kira [SEV]/Hanma Baki - Son Of Ogre - 04 - The Second 1080p NF WebRip x265 DDP 5 1 Kira [SEV] mkv
....
465 MB
5 Hanma Baki - Son Of Ogre [2021] 1080p NF WebRip x265 DDP 5 1 Kira [SEV]/Hanma Baki - Son Of Ogre - 05 - Terrible Triplets 1080p NF WebRip x265 DDP 5 1 Kira [SEV] mkv
....
439 MB
5 Hanma Baki - Son Of Ogre [2021] 1080p NF WebRip x265 DDP 5 1 Kira [SEV]/Hanma Baki - Son Of Ogre - 06 - Man Of The Sea 1080p NF WebRip x265 DDP 5 1 Kira [SEV] mkv
....
358 MB
5 Hanma Baki - Son Of Ogre [2021] 1080p NF WebRip x265 DDP 5 1 Kira [SEV]/Hanma Baki - Son Of Ogre - 07 - Hyper Male And Hyper Male 1080p NF WebRip x265 DDP 5 1 Kira [SEV] mkv
....
483 MB
5 Hanma Baki - Son Of Ogre [2021] 1080p NF WebRip x265 DDP 5 1 Kira [SEV]/Hanma Baki - Son Of Ogre - 08 - Gilberto Style 1080p NF WebRip x265 DDP 5 1 Kira [SEV] mkv
....
448 MB
5 Hanma Baki - Son Of Ogre [2021] 1080p NF WebRip x265 DDP 5 1 Kira [SEV]/Hanma Baki - Son Of Ogre - 09 - Decision Time 1080p NF WebRip x265 DDP 5 1 Kira [SEV] mkv
....
412 MB
5 Hanma Baki - Son Of Ogre [2021] 1080p NF WebRip x265 DDP 5 1 Kira [SEV]/Hanma Baki - Son Of Ogre - 10 - Can't You Laugh_ 1080p NF WebRip x265 DDP 5 1 Kira [SEV] mkv
....
342 MB
5 Hanma Baki - Son Of Ogre [2021] 1080p NF WebRip x265 DDP 5 1 Kira [SEV]/Hanma Baki - Son Of Ogre - 11 - The Prison Guard Talks About It 1080p NF WebRip x265 DDP 5 1 Kira [SEV] mkv
....
446 MB
5 Hanma Baki - Son Of Ogre [2021] 1080p NF WebRip x265 DDP 5 1 Kira [SEV]/Hanma Baki - Son Of Ogre - 12 - Beyond The Brawn 1080p NF WebRip x265 DDP 5 1 Kira [SEV] mkv
....
448 MB
Contact SEV txt
....
1.03 kB