Hide Your IP Address when Downloading Torrents!
Your IP Address is . Location
Your Internet Provider can see when you download torrents! Hide your IP Address with a VPN
ETTV warns: You should use VPN to hide your torrenting. Hide IP with VPN

Download "The Wind Rises [2013] 1080p BDRip x265 LPCM 2 0 Kira [SEV]"

Title:
The Wind Rises [2013] 1080p BDRip x265 LPCM 2 0 Kira [SEV]
Category:
Anime > Dubbed/Subbed
Language:
Japanese
Total Size:
17.13 GB
Info Hash:
f910cd03528de6818c27161a6a84bec244d65c7b
Added By:
D0ct0rLew
Date Added:
1 week ago
  • Seeds: 24
  • Leechers: 33
  • Uploaded By: D0ct0rLew
Uploaders Description



Screenshot's
Source vs Encode :-
-----------
-----------
-----------
-----------
-----------


Media Information
General
Unique ID                   : 121980034875155628004049768091206005997 (0x5BC4800BB026E9399D44A207668BB4ED)
Complete name               : The Wind Rises [2013] 1080p BDRip x265 LPCM 2.0 Kira [SEV].mkv
Format                      : Matroska
Format version              : Version 4
File size                   : 17.1 GiB
Duration                    : 2 h 6 min
Overall bit rate mode       : Variable
Overall bit rate            : 19.4 Mb/s
Movie name                  : | 風立ちぬ (Kaze Tachinu) [2013] | The Wind Rises [2013] | 1080p | BDRip | x265 | LPCM 2.0 @ 2304 Kbps | Kira [SEV] |
Encoded date                : UTC 2021-12-16 02:53:16
Writing application         : mkvmerge v61.0.0 ('So') 64-bit
Writing library             : libebml v1.4.2 + libmatroska v1.6.4

Video
ID                          : 1
Format                      : HEVC
Format/Info                 : High Efficiency Video Coding
Format profile              : Main [email protected]@Main
Codec ID                    : V_MPEGH/ISO/HEVC
Duration                    : 2 h 6 min
Bit rate                    : 15.7 Mb/s
Width                       : 1 920 pixels
Height                      : 1 080 pixels
Display aspect ratio        : 16:9
Frame rate mode             : Constant
Frame rate                  : 23.976 (24000/1001) FPS
Color space                 : YUV
Chroma subsampling          : 4:2:0
Bit depth                   : 10 bits
Bits/(Pixel*Frame)          : 0.316
Stream size                 : 13.9 GiB (81%)
Title                       : | 風立ちぬ (Kaze Tachinu) [2013] | The Wind Rises [2013] | 1080p | BDRip | x265 | LPCM 2.0 @ 2304 Kbps | Kira [SEV] |
Writing library             : x265 3.5+20-17839cc0d:[Windows][MSVC 1930][64 bit] 10bit
Encoding settings           : cpuid=1111039 / frame-threads=3 / numa-pools=12 / wpp / no-pmode / no-pme / no-psnr / no-ssim / log-level=2 / input-csp=1 / input-res=1920x1080 / interlace=0 / total-frames=181985 / level-idc=0 / high-tier=1 / uhd-bd=0 / ref=5 / no-allow-non-conformance / no-repeat-headers / annexb / no-aud / no-eob / no-eos / no-hrd / info / hash=0 / no-temporal-layers / open-gop / min-keyint=23 / keyint=250 / gop-lookahead=0 / bframes=16 / b-adapt=2 / b-pyramid / bframe-bias=0 / rc-lookahead=100 / lookahead-slices=0 / scenecut=40 / no-hist-scenecut / radl=0 / no-splice / no-intra-refresh / ctu=64 / min-cu-size=8 / no-rect / no-amp / max-tu-size=32 / tu-inter-depth=4 / tu-intra-depth=4 / limit-tu=4 / rdoq-level=2 / dynamic-rd=0.00 / no-ssim-rd / signhide / no-tskip / nr-intra=0 / nr-inter=0 / no-constrained-intra / no-strong-intra-smoothing / max-merge=4 / limit-refs=1 / limit-modes / me=3 / subme=7 / merange=92 / temporal-mvp / no-frame-dup / no-hme / weightp / weightb / no-analyze-src-pics / deblock=0:0 / no-sao / no-sao-non-deblock / rd=6 / selective-sao=0 / no-early-skip / rskip / no-fast-intra / no-tskip-fast / no-cu-lossless / b-intra / no-splitrd-skip / rdpenalty=0 / psy-rd=1.50 / psy-rdoq=1.00 / no-rd-refine / no-lossless / cbqpoffs=0 / crqpoffs=0 / rc=crf / crf=14.0 / qcomp=0.60 / qpstep=4 / stats-write=0 / stats-read=0 / ipratio=1.40 / pbratio=1.30 / aq-mode=3 / aq-strength=1.30 / cutree / zone-count=0 / no-strict-cbr / qg-size=32 / no-rc-grain / qpmax=69 / qpmin=0 / no-const-vbv / sar=0 / overscan=0 / videoformat=5 / range=0 / colorprim=2 / transfer=2 / colormatrix=2 / chromaloc=0 / display-window=0 / cll=0,0 / min-luma=0 / max-luma=1023 / log2-max-poc-lsb=8 / vui-timing-info / vui-hrd-info / slices=1 / no-opt-qp-pps / no-opt-ref-list-length-pps / no-multi-pass-opt-rps / scenecut-bias=0.05 / hist-threshold=0.03 / no-opt-cu-delta-qp / no-aq-motion / no-hdr10 / no-hdr10-opt / no-dhdr10-opt / no-idr-recovery-sei / analysis-reuse-level=0 / analysis-save-reuse-level=0 / analysis-load-reuse-level=0 / scale-factor=0 / refine-intra=0 / refine-inter=0 / refine-mv=1 / refine-ctu-distortion=0 / no-limit-sao / ctu-info=0 / no-lowpass-dct / refine-analysis-type=0 / copy-pic=1 / max-ausize-factor=1.0 / no-dynamic-refine / no-single-sei / no-hevc-aq / no-svt / no-field / qp-adaptation-range=1.00 / scenecut-aware-qp=0conformance-window-offsets / right=0 / bottom=0 / decoder-max-rate=0 / no-vbv-live-multi-pass
Language                    : Japanese
Default                     : Yes
Forced                      : No

Audio #1
ID                          : 2
Format                      : PCM
Format settings             : Little / Signed
Codec ID                    : A_PCM/INT/LIT
Duration                    : 2 h 6 min
Bit rate mode               : Constant
Bit rate                    : 2 304 kb/s
Channel(s)                  : 2 channels
Sampling rate               : 48.0 kHz
Frame rate                  : 32.000 FPS (1500 SPF)
Bit depth                   : 24 bits
Stream size                 : 2.04 GiB (12%)
Title                       : Japanese BD LPCM 2.0 @ 2304 Kbps
Language                    : Japanese
Default                     : Yes
Forced                      : No

Audio #2
ID                          : 3
Format                      : DTS XLL
Format/Info                 : Digital Theater Systems
Commercial name             : DTS-HD Master Audio
Codec ID                    : A_DTS
Duration                    : 2 h 6 min
Bit rate mode               : Variable
Bit rate                    : 1 128 kb/s
Channel(s)                  : 1 channel
Channel layout              : C
Sampling rate               : 48.0 kHz
Frame rate                  : 93.750 FPS (512 SPF)
Bit depth                   : 24 bits
Compression mode            : Lossless
Delay relative to video     : 7 ms
Stream size                 : 1 020 MiB (6%)
Title                       : Japanese BD DTS:HD MA 1.0 @ 1128 Kbps
Language                    : Japanese
Default                     : No
Forced                      : No

Audio #3
ID                          : 4
Format                      : AC-3
Format/Info                 : Audio Coding 3
Commercial name             : Dolby Digital
Codec ID                    : A_AC3
Duration                    : 2 h 6 min
Bit rate mode               : Constant
Bit rate                    : 192 kb/s
Channel(s)                  : 1 channel
Channel layout              : C
Sampling rate               : 48.0 kHz
Frame rate                  : 31.250 FPS (1536 SPF)
Compression mode            : Lossy
Delay relative to video     : 28 ms
Stream size                 : 174 MiB (1%)
Title                       : English BD AC-3 DD 1.0 @ 192 Kbps
Language                    : English
Service kind                : Complete Main
Default                     : No
Forced                      : No

Text #1
ID                          : 5
Format                      : PGS
Codec ID                    : S_HDMV/PGS
Codec ID/Info               : Picture based subtitle format used on BDs/HD-DVDs
Duration                    : 2 h 0 min
Bit rate                    : 23.8 kb/s
Count of elements           : 2814
Stream size                 : 20.6 MiB (0%)
Title                       : Japanese BD PGS Sub
Language                    : Japanese
Default                     : Yes
Forced                      : No

Text #2
ID                          : 6
Format                      : PGS
Codec ID                    : S_HDMV/PGS
Codec ID/Info               : Picture based subtitle format used on BDs/HD-DVDs
Duration                    : 2 h 6 min
Bit rate                    : 28.5 kb/s
Count of elements           : 2028
Stream size                 : 25.7 MiB (0%)
Title                       : English BD PGS Sub
Language                    : English
Default                     : No
Forced                      : No

Menu
00:00:00.000                : ja:Chapter 1
00:07:09.220                : ja:Chapter 2
00:12:52.688                : ja:Chapter 3
00:21:53.979                : ja:Chapter 4
00:30:06.471                : ja:Chapter 5
00:37:49.433                : ja:Chapter 6
00:44:57.528                : ja:Chapter 7
00:52:59.634                : ja:Chapter 8
01:00:33.755                : ja:Chapter 9
01:08:06.290                : ja:Chapter 10
01:17:12.919                : ja:Chapter 11
01:28:44.026                : ja:Chapter 12
01:35:20.548                : ja:Chapter 13
01:46:39.059                : ja:Chapter 14
01:52:45.883                : ja:Chapter 15
02:02:56.744                : ja:Chapter 16


Source Information
The Wind Rises 2013 1080p JPN MGVC Bluray Remux AVC DTS-MA - BluDragon (32.8 GB)
General
Unique ID                   : 232229361601833923155949557028607007753 (0xAEB5BF86980B8C7BAB299E41F5849C09)
Complete name               : The Wind Rises 2013 1080p JPN MGVC Bluray Remux AVC DTS-MA - BluDragon.mkv
Format                      : Matroska
Format version              : Version 4
File size                   : 32.8 GiB
Duration                    : 2 h 6 min
Overall bit rate mode       : Variable
Overall bit rate            : 37.2 Mb/s
Encoded date                : UTC 2014-08-01 13:42:26
Writing application         : mkvmerge v7.1.0 ('Good Love') 64bit built on Jul 27 2014 13:06:55
Writing library             : libebml v1.3.0 + libmatroska v1.4.1

Video
ID                          : 1
Format                      : AVC
Format/Info                 : Advanced Video Codec
Format profile              : [email protected]
Format settings             : CABAC / 2 Ref Frames
Format settings, CABAC      : Yes
Format settings, Reference  : 2 frames
Format settings, GOP        : M=3, N=24
Codec ID                    : V_MPEG4/ISO/AVC
Duration                    : 2 h 6 min
Bit rate                    : 32.5 Mb/s
Width                       : 1 920 pixels
Height                      : 1 080 pixels
Display aspect ratio        : 16:9
Frame rate mode             : Constant
Frame rate                  : 23.976 (24000/1001) FPS
Color space                 : YUV
Chroma subsampling          : 4:2:0
Bit depth                   : 8 bits
Scan type                   : Progressive
Bits/(Pixel*Frame)          : 0.654
Stream size                 : 28.7 GiB (88%)
Title                       : MPEG-4 AVC Video / 32,518 kbps / 1080p / 23.976 fps / 16:9 / High Profile 4.1
Language                    : Japanese
Default                     : Yes
Forced                      : No

Audio #1
ID                          : 2
Format                      : PCM
Format settings             : Little / Signed
Codec ID                    : A_PCM/INT/LIT
Duration                    : 2 h 6 min
Bit rate mode               : Constant
Bit rate                    : 2 304 kb/s
Channel(s)                  : 2 channels
Sampling rate               : 48.0 kHz
Frame rate                  : 32.000 FPS (1500 SPF)
Bit depth                   : 24 bits
Stream size                 : 2.04 GiB (6%)
Title                       : LPCM Audio / 2.0 / 48 kHz / 2304 kbps / 24-bit
Language                    : Japanese
Default                     : No
Forced                      : No

Audio #2
ID                          : 3
Format                      : DTS XLL
Format/Info                 : Digital Theater Systems
Commercial name             : DTS-HD Master Audio
Codec ID                    : A_DTS
Duration                    : 2 h 6 min
Bit rate mode               : Variable
Bit rate                    : 1 128 kb/s
Channel(s)                  : 1 channel
Channel layout              : C
Sampling rate               : 48.0 kHz
Frame rate                  : 93.750 FPS (512 SPF)
Bit depth                   : 24 bits
Compression mode            : Lossless
Delay relative to video     : 7 ms
Stream size                 : 1 020 MiB (3%)
Title                       : DTS-HD Master Audio / 1.0 / 48 kHz / 1,128 kbps / 24-bit (DTS Core: 1.0 / 48 kHz / 768 kbps / 24-bit)
Language                    : Japanese
Default                     : No
Forced                      : No

Audio #3
ID                          : 4
Format                      : AC-3
Format/Info                 : Audio Coding 3
Commercial name             : Dolby Digital
Codec ID                    : A_AC3
Duration                    : 2 h 6 min
Bit rate mode               : Constant
Bit rate                    : 192 kb/s
Channel(s)                  : 1 channel
Channel layout              : C
Sampling rate               : 48.0 kHz
Frame rate                  : 31.250 FPS (1536 SPF)
Compression mode            : Lossy
Delay relative to video     : 28 ms
Stream size                 : 174 MiB (0%)
Title                       : Dolby Digital Audio / 1.0 / 48 kHz / 192 kbps
Language                    : English
Service kind                : Complete Main
Default                     : Yes
Forced                      : No

Audio #4
ID                          : 5
Format                      : AC-3
Format/Info                 : Audio Coding 3
Commercial name             : Dolby Digital
Codec ID                    : A_AC3
Duration                    : 2 h 6 min
Bit rate mode               : Constant
Bit rate                    : 192 kb/s
Channel(s)                  : 1 channel
Channel layout              : C
Sampling rate               : 48.0 kHz
Frame rate                  : 31.250 FPS (1536 SPF)
Compression mode            : Lossy
Delay relative to video     : 28 ms
Stream size                 : 174 MiB (0%)
Title                       : Dolby Digital Audio / 1.0 / 48 kHz / 192 kbps
Language                    : French
Service kind                : Complete Main
Default                     : No
Forced                      : No

Audio #5
ID                          : 6
Format                      : AC-3
Format/Info                 : Audio Coding 3
Commercial name             : Dolby Digital
Codec ID                    : A_AC3
Duration                    : 2 h 6 min
Bit rate mode               : Constant
Bit rate                    : 192 kb/s
Channel(s)                  : 1 channel
Channel layout              : C
Sampling rate               : 48.0 kHz
Frame rate                  : 31.250 FPS (1536 SPF)
Compression mode            : Lossy
Delay relative to video     : 28 ms
Stream size                 : 174 MiB (0%)
Title                       : Dolby Digital Audio / 1.0 / 48 kHz / 192 kbps
Language                    : Russian
Service kind                : Complete Main
Default                     : No
Forced                      : No

Audio #6
ID                          : 7
Format                      : AC-3
Format/Info                 : Audio Coding 3
Commercial name             : Dolby Digital
Codec ID                    : A_AC3
Duration                    : 2 h 6 min
Bit rate mode               : Constant
Bit rate                    : 192 kb/s
Channel(s)                  : 1 channel
Channel layout              : C
Sampling rate               : 48.0 kHz
Frame rate                  : 31.250 FPS (1536 SPF)
Compression mode            : Lossy
Delay relative to video     : 28 ms
Stream size                 : 174 MiB (0%)
Title                       : Dolby Digital Audio / 1.0 / 48 kHz / 192 kbps
Language                    : Korean
Service kind                : Complete Main
Default                     : No
Forced                      : No

Audio #7
ID                          : 8
Format                      : AC-3
Format/Info                 : Audio Coding 3
Commercial name             : Dolby Digital
Codec ID                    : A_AC3
Duration                    : 2 h 6 min
Bit rate mode               : Constant
Bit rate                    : 192 kb/s
Channel(s)                  : 1 channel
Channel layout              : C
Sampling rate               : 48.0 kHz
Frame rate                  : 31.250 FPS (1536 SPF)
Compression mode            : Lossy
Delay relative to video     : 28 ms
Stream size                 : 174 MiB (0%)
Title                       : Dolby Digital Audio / 1.0 / 48 kHz / 192 kbps
Language                    : Chinese
Service kind                : Complete Main
Default                     : No
Forced                      : No

Audio #8
ID                          : 9
Format                      : AC-3
Format/Info                 : Audio Coding 3
Commercial name             : Dolby Digital
Codec ID                    : A_AC3
Duration                    : 2 h 6 min
Bit rate mode               : Constant
Bit rate                    : 192 kb/s
Channel(s)                  : 1 channel
Channel layout              : C
Sampling rate               : 48.0 kHz
Frame rate                  : 31.250 FPS (1536 SPF)
Compression mode            : Lossy
Delay relative to video     : 28 ms
Stream size                 : 174 MiB (0%)
Title                       : Dolby Digital Audio / 1.0 / 48 kHz / 192 kbps
Language                    : Chinese
Service kind                : Complete Main
Default                     : No
Forced                      : No

Text #1
ID                          : 10
Format                      : PGS
Muxing mode                 : zlib
Codec ID                    : S_HDMV/PGS
Codec ID/Info               : Picture based subtitle format used on BDs/HD-DVDs
Duration                    : 2 h 0 min
Bit rate                    : 10.8 kb/s
Count of elements           : 2814
Stream size                 : 9.31 MiB (0%)
Language                    : Japanese
Default                     : No
Forced                      : No

Text #2
ID                          : 11
Format                      : PGS
Muxing mode                 : zlib
Codec ID                    : S_HDMV/PGS
Codec ID/Info               : Picture based subtitle format used on BDs/HD-DVDs
Duration                    : 2 h 6 min
Bit rate                    : 7 894 b/s
Count of elements           : 2028
Stream size                 : 7.13 MiB (0%)
Language                    : English
Default                     : No
Forced                      : No

Text #3
ID                          : 12
Format                      : PGS
Muxing mode                 : zlib
Codec ID                    : S_HDMV/PGS
Codec ID/Info               : Picture based subtitle format used on BDs/HD-DVDs
Duration                    : 2 h 6 min
Bit rate                    : 8 054 b/s
Count of elements           : 2248
Stream size                 : 7.27 MiB (0%)
Language                    : French
Default                     : No
Forced                      : No

Text #4
ID                          : 13
Format                      : PGS
Muxing mode                 : zlib
Codec ID                    : S_HDMV/PGS
Codec ID/Info               : Picture based subtitle format used on BDs/HD-DVDs
Duration                    : 2 h 6 min
Bit rate                    : 6 716 b/s
Count of elements           : 2540
Stream size                 : 6.07 MiB (0%)
Language                    : Korean
Default                     : No
Forced                      : No

Text #5
ID                          : 14
Format                      : PGS
Muxing mode                 : zlib
Codec ID                    : S_HDMV/PGS
Codec ID/Info               : Picture based subtitle format used on BDs/HD-DVDs
Duration                    : 2 h 6 min
Bit rate                    : 10.1 kb/s
Count of elements           : 2642
Stream size                 : 9.08 MiB (0%)
Language                    : Chinese
Default                     : No
Forced                      : No

Text #6
ID                          : 15
Format                      : PGS
Muxing mode                 : zlib
Codec ID                    : S_HDMV/PGS
Codec ID/Info               : Picture based subtitle format used on BDs/HD-DVDs
Duration                    : 2 h 6 min
Bit rate                    : 8 506 b/s
Count of elements           : 2292
Stream size                 : 7.67 MiB (0%)
Language                    : Chinese
Default                     : No
Forced                      : No

Menu
00:00:00.000                : en:Chapter 1
00:07:09.220                : en:Chapter 2
00:12:52.688                : en:Chapter 3
00:21:53.979                : en:Chapter 4
00:30:06.471                : en:Chapter 5
00:37:49.433                : en:Chapter 6
00:44:57.528                : en:Chapter 7
00:52:59.634                : en:Chapter 8
01:00:33.755                : en:Chapter 9
01:08:06.290                : en:Chapter 10
01:17:12.919                : en:Chapter 11
01:28:44.026                : en:Chapter 12
01:35:20.548                : en:Chapter 13
01:46:39.059                : en:Chapter 14
01:52:45.883                : en:Chapter 15
02:02:56.744                : en:Chapter 16


We have no issue with individuals posting or re-uploading our torrents on a platform we aren't on. However, if this is something you'd like to do, please do so in a 'as-is' format. We ask that you do not create a new torrent, include all descriptions you see above including the SEV logo, tags, notes and screenshots. If you'd like to become a permanent poster on a website we don't post to, feel free to get in contact with a Sublime Encoded Video member.

We are recruiting/training new members for SEV & seedbox providers as well as people to help out with subtitles.
As you already know, we deliver quality, so you know the standard.
If you're interested, feel free to contact any of the team members.




File List:

Contact SEV txt
....
1.04 kB
The Wind Rises [2013] 1080p BDRip x265 LPCM 2 0 Kira [SEV] mkv
....
17.13 GB