Hide Your IP Address when Downloading Torrents!
Your IP Address is 182.232.198.186. Location Thailand,
Your Internet Provider can see when you download torrents! Hide your IP Address with a VPN
ETTV warns: You should use VPN to hide your torrenting. Hide IP with VPN

Download "V/H/S/94 (2021) Rus Eng (Rus Eng Subs) WEB-DLRip ViruseProject"

Title:
V/H/S/94 (2021) Rus Eng (Rus Eng Subs) WEB-DLRip ViruseProject
Category:
Movies > XviD
Language:
Russian
Total Size:
1.73 GB
Info Hash:
7a7c22492e6725e7c584d4c4562120f75a816efc
Added By:
viruse
Date Added:
6 days ago
  • Seeds: 1314
  • Leechers: 381
  • Uploaded By: viruse
Uploaders Description


https://www.youtube.com/watch?v=opnSln8Ue2U

https://www.imdb.com/title/tt14867006






Video
ID                                       : 0
Format                                   : MPEG-4 Visual
Format profile                           : Advanced [email protected]
Format settings                          : BVOP3
Format settings, BVOP                    : 3
Format settings, QPel                    : No
Format settings, GMC                     : No warppoints
Format settings, Matrix                  : Default (H.263)
Codec ID                                 : XVID
Codec ID/Hint                            : XviD
Duration                                 : 1 h 43 min
Bit rate                                 : 2 001 kb/s
Width                                    : 720 pixels
Height                                   : 400 pixels
Display aspect ratio                     : 16:9
Frame rate                               : 30.000 FPS
Color space                              : YUV
Chroma subsampling                       : 4:2:0
Bit depth                                : 8 bits
Scan type                                : Progressive
Compression mode                         : Lossy
Bits/(Pixel*Frame)                       : 0.232
Stream size                              : 1.45 GiB (83%)
Writing library                          : XviD 69

Audio #1
ID                                       : 1
Format                                   : AC-3
Format/Info                              : Audio Coding 3
Commercial name                          : Dolby Digital
Codec ID                                 : 2000
Duration                                 : 1 h 43 min
Bit rate mode                            : Constant
Bit rate                                 : 192 kb/s
Channel(s)                               : 2 channels
Channel layout                           : L R
Sampling rate                            : 48.0 kHz
Frame rate                               : 31.250 FPS (1536 SPF)
Compression mode                         : Lossy
Stream size                              : 142 MiB (8%)
Alignment                                : Split across interleaves
Interleave, duration                     : 33  ms (1.00 video frame)
Interleave, preload duration             : 500  ms
Service kind                             : Complete Main

Audio #2
ID                                       : 2
Format                                   : AC-3
Format/Info                              : Audio Coding 3
Commercial name                          : Dolby Digital
Codec ID                                 : 2000
Duration                                 : 1 h 43 min
Bit rate mode                            : Constant
Bit rate                                 : 192 kb/s
Channel(s)                               : 2 channels
Channel layout                           : L R
Sampling rate                            : 48.0 kHz
Frame rate                               : 31.250 FPS (1536 SPF)
Bit depth                                : 16 bits
Compression mode                         : Lossy
Stream size                              : 142 MiB (8%)
Alignment                                : Aligned on interleaves
Interleave, duration                     : 160  ms (4.80 video frames)
Interleave, preload duration             : 640  ms
Service kind                             : Complete Main


File List:

Subs/V H S 94 2021 400p WEB-DL ViruseProject_Eng srt
....
86.07 kB
Subs/V H S 94 2021 400p WEB-DL ViruseProject_Rus srt
....
89.91 kB
V H S 94 2021 400p WEB-DL ViruseProject avi
....
1.73 GB