Hide Your IP Address when Downloading Torrents!
Your IP Address is 182.232.198.186. Location Thailand,
Your Internet Provider can see when you download torrents! Hide your IP Address with a VPN
ETTV warns: You should use VPN to hide your torrenting. Hide IP with VPN

Download "Akashic Records of Bastard Magic Instructor 1-12 English Dubbed 1080p"

Title:
Akashic Records of Bastard Magic Instructor 1-12 English Dubbed 1080p
Category:
Anime > Dubbed/Subbed
Language:
English
Total Size:
16.16 GB
Info Hash:
a456d61af1ecd8d6c98171340a600091a0bc94ef
Added By:
ItsRainingHP
Date Added:
1 week ago
  • Seeds: 3
  • Leechers: 3
  • Uploaded By: ItsRainingHP
Uploaders Description




The Alzano Imperial Magic Academy is located in the southern part of the Alzano Empire and is among most prominent magic schools in the world, where students can learn the highest forms of magic. All those who strive to learn magic dream of studying at this academy, and its students as well as its teachers are proud to be a part of its 400-year history. Glenn Radars is a new instructor who has suddenly been appointed to teach part-time at this highly respected academy. The previously unheard-of lessons of this man known as a good-for-nothing bastard are about to begin.








Complete name                            : Akashic Records of Bastard Magic Instructor - S01E01 - The Unmotivated Bastard - SDTV.mp4
Format                                   : MPEG-4
Format profile                           : Base Media
Codec ID                                 : isom (isom/iso2/avc1/mp41)
File size                                : 1.35 GiB
Duration                                 : 24 min 19 s
Overall bit rate mode                    : Variable
Overall bit rate                         : 7 952 kb/s
Collection                               : Akashic Records of Bastard Magic Instructor
Season                                   : 1
Album                                    : Akashic Records of Bastard Magic Instructor, Season 1
Part                                     : 1
Part/Position                            : 1
Track name                               : The Unmotivated Bastard
Track name/Position                      : 1
Track name/Total                         : 12
Director                                 : Minato Kazuto
Actor                                    : Soma Saito / Akane Fujita / Yume Miyamoto / Ari Ozawa / Eri Kitamura
Screenplay by                            : Satoshi Takafuji / Minato Kazuto / Touko Machida
Genre                                    : Animation
ContentType                              : TV Show
Description                              : Glenn is a bastard who only sleeps instead of teaching class at the Alzano Imperial Magic Academy. When one of his excellent students, Sistine, finally gets fed up, she challenges him to a duel to make him teach properly.
Recorded date                            : 2017-04-04
Tagged date                              : UTC 2021-08-01 23:08:21
Writing application                      : SMA:Akashic Records of Bastard Magic Instructor - 001 - S01E001 - The Unmotivated Bastard.mp4
Cover                                    : Yes
ContentRating                            : us-tv|TV-MA|600
TVNetworkName                            : AT-X
Part_ID                                  : The Unmotivated Bastard
LongDescription                          : Glenn is a bastard who only sleeps instead of teaching class at the Alzano Imperial Magic Academy. When one of his excellent students, Sistine, finally gets fed up, she challenges him to a duel to make him teach properly.



ID                                       : 1
Format                                   : AVC
Format/Info                              : Advanced Video Codec
Format profile                           : [email protected]
Format settings                          : CABAC / 4 Ref Frames
Format settings, CABAC                   : Yes
Format settings, Reference frames        : 4 frames
Codec ID                                 : avc1
Codec ID/Info                            : Advanced Video Coding
Duration                                 : 24 min 19 s
Source duration                          : 24 min 19 s
Bit rate                                 : 8 000 kb/s
Maximum bit rate                         : 7 692 kb/s
Width                                    : 1 920 pixels
Height                                   : 1 080 pixels
Display aspect ratio                     : 16:9
Frame rate mode                          : Variable
Frame rate                               : 23.976 (24000/1001) FPS
Minimum frame rate                       : 23.974 FPS
Maximum frame rate                       : 23.981 FPS
Color space                              : YUV
Chroma subsampling                       : 4:2:0
Bit depth                                : 8 bits
Scan type                                : Progressive
Bits/(Pixel*Frame)                       : 0.161
Stream size                              : 1.31 GiB (97%)
Source stream size                       : 1.31 GiB (97%)
Writing library                          : x264 core 152 r2857 5b5d69f
Encoding settings                        : cabac=1 / ref=1 / deblock=1:0:0 / analyse=0x3:0x113 / me=hex / subme=7 / psy=1 / psy_rd=1.00:0.00 / mixed_ref=0 / me_range=16 / chroma_me=1 / trellis=1 / 8x8dct=1 / cqm=0 / deadzone=21,11 / fast_pskip=1 / chroma_qp_offset=-2 / threads=24 / lookahead_threads=4 / sliced_threads=0 / nr=0 / decimate=1 / interlaced=0 / bluray_compat=0 / constrained_intra=0 / bframes=2 / b_pyramid=2 / b_adapt=1 / b_bias=0 / direct=1 / weightb=1 / open_gop=0 / weightp=2 / keyint=48 / keyint_min=4 / scenecut=40 / intra_refresh=0 / rc_lookahead=40 / rc=cbr / mbtree=1 / bitrate=8000 / ratetol=1.0 / qcomp=0.60 / qpmin=0 / qpmax=69 / qpstep=4 / vbv_maxrate=8000 / vbv_bufsize=24000 / nal_hrd=none / filler=0 / ip_ratio=1.40 / aq=1:1.00
Language                                 : English
Menus                                    : 3
mdhd_Duration                            : 1459125
Codec configuration box                  : avcC



ID                                       : 2
Format                                   : AAC LC
Format/Info                              : Advanced Audio Codec Low Complexity
Codec ID                                 : mp4a-40-2
Duration                                 : 24 min 19 s
Bit rate mode                            : Variable
Bit rate                                 : 253 kb/s
Maximum bit rate                         : 256 kb/s / 256 kb/s
Channel(s)                               : 2 channels
Channel layout                           : L R
Sampling rate                            : 48.0 kHz
Frame rate                               : 46.875 FPS (1024 SPF)
Compression mode                         : Lossy
Stream size                              : 44.1 MiB (3%)
Language                                 : English
Default                                  : Yes
Alternate group                          : 1



File List:

Season 1/Akashic Records of Bastard Magic Instructor - S01E01 - The Unmotivated Bastard - SDTV en srt
....
36.64 kB
Season 1/Akashic Records of Bastard Magic Instructor - S01E01 - The Unmotivated Bastard - SDTV mp4
....
1.35 GB
Season 1/Akashic Records of Bastard Magic Instructor - S01E02 - Just the Slightest Bit of Motivation - SDTV en srt
....
39.17 kB
Season 1/Akashic Records of Bastard Magic Instructor - S01E02 - Just the Slightest Bit of Motivation - SDTV mp4
....
1.35 GB
Season 1/Akashic Records of Bastard Magic Instructor - S01E03 - The Fool and Death - SDTV en srt
....
29.13 kB
Season 1/Akashic Records of Bastard Magic Instructor - S01E03 - The Fool and Death - SDTV mp4
....
1.35 GB
Season 1/Akashic Records of Bastard Magic Instructor - S01E04 - The Magic Competition - SDTV en srt
....
36.86 kB
Season 1/Akashic Records of Bastard Magic Instructor - S01E04 - The Magic Competition - SDTV mp4
....
1.35 GB
Season 1/Akashic Records of Bastard Magic Instructor - S01E05 - The Queen and the Princess - SDTV en srt
....
33.81 kB
Season 1/Akashic Records of Bastard Magic Instructor - S01E05 - The Queen and the Princess - SDTV mp4
....
1.34 GB
Season 1/Akashic Records of Bastard Magic Instructor - S01E06 - The Evil Being - SDTV en srt
....
32.29 kB
Season 1/Akashic Records of Bastard Magic Instructor - S01E06 - The Evil Being - SDTV mp4
....
1.34 GB
Season 1/Akashic Records of Bastard Magic Instructor - S01E07 - The Sea of Falling Stars - SDTV en srt
....
30.20 kB
Season 1/Akashic Records of Bastard Magic Instructor - S01E07 - The Sea of Falling Stars - SDTV mp4
....
1.34 GB
Season 1/Akashic Records of Bastard Magic Instructor - S01E08 - The Fool and the Star - SDTV en srt
....
28.50 kB
Season 1/Akashic Records of Bastard Magic Instructor - S01E08 - The Fool and the Star - SDTV mp4
....
1.36 GB
Season 1/Akashic Records of Bastard Magic Instructor - S01E09 - The Reason to Live - SDTV en srt
....
34.90 kB
Season 1/Akashic Records of Bastard Magic Instructor - S01E09 - The Reason to Live - SDTV mp4
....
1.35 GB
Season 1/Akashic Records of Bastard Magic Instructor - S01E10 - Gold Digger! - SDTV en srt
....
33.54 kB
Season 1/Akashic Records of Bastard Magic Instructor - S01E10 - Gold Digger! - SDTV mp4
....
1.34 GB
Season 1/Akashic Records of Bastard Magic Instructor - S01E11 - Face Off! The Magic Corps Battle - SDTV en srt
....
35.32 kB
Season 1/Akashic Records of Bastard Magic Instructor - S01E11 - Face Off! The Magic Corps Battle - SDTV mp4
....
1.35 GB
Season 1/Akashic Records of Bastard Magic Instructor - S01E12 - Finding One's Own Place - SDTV en srt
....
31.85 kB
Season 1/Akashic Records of Bastard Magic Instructor - S01E12 - Finding One's Own Place - SDTV mp4
....
1.35 GB