Hide Your IP Address when Downloading Torrents!
Your IP Address is 182.232.198.186. Location Thailand,
Your Internet Provider can see when you download torrents! Hide your IP Address with a VPN
ETTV warns: You should use VPN to hide your torrenting. Hide IP with VPN

Download "World War Z (2002) 720p BluRay Dual Audio [Hindi ORG DD 5 1 + English] x264 AAC ESub By Full4Movies mkv"

Title:
World War Z (2002) 720p BluRay Dual Audio [Hindi ORG DD 5 1 + English] x264 AAC ESub By Full4Movies mkv
Category:
Movies > Dubs/Dual Audio
Language:
Hindi
Total Size:
1.21 GB
Info Hash:
b8de1fa2e3263a314ea43c771fc41988b08a3b7f
Added By:
full4movies
Date Added:
3 days ago
  • Seeds: 32
  • Leechers: 0
  • Uploaded By: full4movies
Uploaders Description



Visit Us = https://www.full4movies.site/



General
Complete name                  : World War Z (2002) 720p BluRay Dual Audio [Hindi ORG DD 5.1 + English] x264 AAC ESub By Full4Movies.mkv
Format                         : Matroska
Format version                 : Version 4
File size                      : 1.21 GiB
Duration                       : 2 h 3 min
Overall bit rate               : 1 410 kb/s
Encoded date                   : UTC 2021-10-13 09:59:16
Writing application            : mkvmerge v8.3.0 ('Over the Horizon') 64bit
Writing library                : libebml v1.3.1 + libmatroska v1.4.2
Attachments                    : +Full4Movies.jpg

Video
ID                             : 1
Format                         : AVC
Format/Info                    : Advanced Video Codec
Format profile                 : [email protected]
Format settings                : CABAC / 4 Ref Frames
Format settings, CABAC         : Yes
Format settings, Reference fra : 4 frames
Codec ID                       : V_MPEG4/ISO/AVC
Duration                       : 2 h 3 min
Bit rate                       : 1 200 kb/s
Width                          : 1 280 pixels
Height                         : 534 pixels
Display aspect ratio           : 2.40:1
Original display aspect ratio  : 2.40:1
Frame rate mode                : Constant
Frame rate                     : 23.976 (24000/1001) FPS
Color space                    : YUV
Chroma subsampling             : 4:2:0
Bit depth                      : 8 bits
Scan type                      : Progressive
Bits/(Pixel*Frame)             : 0.073
Stream size                    : 1.03 GiB (85%)
Writing library                : x264 core 142 r2479 dd79a61
Default                        : Yes
Forced                         : No
Color range                    : Limited
Color primaries                : BT.709
Transfer characteristics       : BT.709
Matrix coefficients            : BT.709

Audio #1
ID                             : 2
Format                         : AAC LC SBR
Format/Info                    : Advanced Audio Codec Low Complexity with Spectral Band Replication
Commercial name                : HE-AAC
Format settings                : NBC
Codec ID                       : A_AAC-5
Duration                       : 2 h 3 min
Bit rate                       : 128 kb/s
Channel(s)                     : 6 channels
Channel layout                 : C L R Ls Rs LFE
Sampling rate                  : 48.0 kHz
Frame rate                     : 23.438 FPS (2048 SPF)
Compression mode               : Lossy
Delay relative to video        : -105 ms
Stream size                    : 113 MiB (9%)
Language                       : Hindi
Default                        : Yes
Forced                         : No

Audio #2
ID                             : 3
Format                         : AAC LC SBR
Format/Info                    : Advanced Audio Codec Low Complexity with Spectral Band Replication
Commercial name                : HE-AAC
Format settings                : NBC
Codec ID                       : A_AAC-5
Duration                       : 2 h 3 min
Bit rate                       : 80.0 kb/s
Channel(s)                     : 2 channels
Channel layout                 : L R
Sampling rate                  : 48.0 kHz
Frame rate                     : 23.438 FPS (2048 SPF)
Compression mode               : Lossy
Delay relative to video        : -105 ms
Stream size                    : 70.4 MiB (6%)
Language                       : English
Default                        : No
Forced                         : No

Text
ID                             : 4
Format                         : PGS
Muxing mode                    : zlib
Codec ID                       : S_HDMV/PGS
Codec ID/Info                  : Picture based subtitle format used on BDs/HD-DVDs
Duration                       : 52 min 37 s
Bit rate                       : 136 b/s
Count of elements              : 18
Stream size                    : 52.8 KiB (0%)
Language                       : English
Default                        : No
Forced                         : No

Screen Shoots



File List:

World War Z (2002) 720p BluRay Dual Audio [Hindi ORG DD 5 1 + English] x264 AAC ESub By Full4Movies mkv
....
1.21 GB