Hide Your IP Address when Downloading Torrents!
Your IP Address is 182.232.198.186. Location Thailand,
Your Internet Provider can see when you download torrents! Hide your IP Address with a VPN
ETTV warns: You should use VPN to hide your torrenting. Hide IP with VPN

Download "Venom: Let There Be Carnage (2021) English 720p CAMRip [NO LOGO] x264 AAC 1 2GB [Themoviesboss]"

Title:
Venom: Let There Be Carnage (2021) English 720p CAMRip [NO LOGO] x264 AAC 1 2GB [Themoviesboss]
Category:
Movies > CAM/TS
Language:
English
Total Size:
1.19 GB
Info Hash:
470472b7a2e0b60f4939e49d2a1b750c88c4baad
Added By:
Suryadipta
Date Added:
3 weeks ago
  • Seeds: 7660
  • Leechers: 2367
  • Uploaded By: Suryadipta
Uploaders Description
We Don't Add Watermark or Audio Tags.

Visit Our Site 
   themoviesboss.com



Encoded by                               : Harley Quinn



Movie name :

Venom: Let There Be Carnage (2021) English 720p CAMRip [NO LOGO] x264 AAC 1.2GB  [Themoviesboss]

General 
Format : Matroska 
Format version : Version 4 
File size : 1.19 GiB 
Duration : 1 h 23 min 
Overall bit rate mode : Variable 
Overall bit rate : 2 024 kb/s 
Movie name : Encoded by : Harley Quinn 
Encoded date : UTC 2021-10-02 00:17:07 
Writing application : mkvmerge v60.0.0 ('Are We Copies?') 64-bit 
Writing library : libebml v1.4.2 + libmatroska v1.6.4 

Video 
ID : 1 
Format : AVC 
Format/Info : Advanced Video Codec 
Format profile : [email protected] 
Format settings : CABAC / 1 Ref Frames 
Format settings, CABAC : Yes 
Format settings, Reference frames : 1 frame 
Format settings, GOP : M=1, N=24 
Codec ID : V_MPEG4/ISO/AVC 
Duration : 1 h 23 min 
Bit rate mode : Variable 
Bit rate : 1 925 kb/s 
Maximum bit rate : 2 999 kb/s 
Width : 1 280 pixels 
Height : 640 pixels 
Display aspect ratio : 2.000 
Frame rate mode : Constant 
Frame rate : 24.000 FPS 
Color space : YUV 
Chroma subsampling : 4:2:0 
Bit depth : 8 bits 
Scan type : Progressive 
Bits/(Pixel*Frame) : 0.098 
Stream size : 1.13 GiB (95%) 
Title : en 
Language : English 
Default : Yes 
Forced : No 
Color range : Limited 
Color primaries : BT.709 
Transfer characteristics : BT.709 
Matrix coefficients : BT.709 

Audio 
ID : 2 
Format : AAC LC 
Format/Info : Advanced Audio Codec Low Complexity 
Codec ID : A_AAC-2 
Duration : 1 h 23 min 
Bit rate : 96.0 kb/s 
Channel(s) : 2 channels 
Channel layout : L R 
Sampling rate : 48.0 kHz 
Frame rate : 46.875 FPS (1024 SPF) 
Compression mode : Lossy 
Stream size : 57.7 MiB (5%) 
Language : English 
Default : Yes 
Forced : No 

                                        











File List:

Venom Let There Be Carnage (2021) English 720p CAMRip [NO LOGO] x264 AAC 1 2GB [Themoviesboss] mkv
....
1.19 GB