Hide Your IP Address when Downloading Torrents!
Your IP Address is 182.232.198.186. Location Thailand,
Your Internet Provider can see when you download torrents! Hide your IP Address with a VPN
ETTV warns: You should use VPN to hide your torrenting. Hide IP with VPN

Download "Sarpatta Parambarai (2021) [Bengali Dub] WEB-DLRip Saicord"

Title:
Sarpatta Parambarai (2021) [Bengali Dub] WEB-DLRip Saicord
Category:
Movies > SD X264/H264
Language:
Bengali
Total Size:
1.72 GB
Info Hash:
7f66d7ad371a7ea0776f7c687a7ab288428f73b4
Added By:
MelbetCinema7
Date Added:
1 month ago
  • Seeds: 10
  • Leechers: 4
  • Uploaded By: MelbetCinema7
Uploaders Description


https://www.imdb.com/title/tt11580854






Video
ID                          : 1
Format                      : AVC
Format/Info                 : Advanced Video Codec
Format profile              : [email protected]
Format settings             : CABAC / 1 Ref Frames
Format settings, CABAC      : Yes
Format settings, Reference  : 1 frame
Codec ID                    : avc1
Codec ID/Info               : Advanced Video Coding
Duration                    : 2 h 55 min
Bit rate mode               : Constant
Bit rate                    : 1 200 kb/s
Width                       : 720 pixels
Height                      : 390 pixels
Display aspect ratio        : 1.85:1
Frame rate mode             : Constant
Frame rate                  : 24.000 FPS
Color space                 : YUV
Chroma subsampling          : 4:2:0
Bit depth                   : 8 bits
Scan type                   : Progressive
Bits/(Pixel*Frame)          : 0.178
Stream size                 : 1.47 GiB (86%)
Codec configuration box     : avcC

Audio
ID                          : 2
Format                      : AAC LC
Format/Info                 : Advanced Audio Codec Low Complexity
Codec ID                    : mp4a-40-2
Duration                    : 2 h 55 min
Source duration             : 2 h 55 min
Bit rate mode               : Constant
Bit rate                    : 192 kb/s
Channel(s)                  : 2 channels
Channel layout              : L R
Sampling rate               : 48.0 kHz
Frame rate                  : 46.875 FPS (1024 SPF)
Compression mode            : Lossy
Stream size                 : 242 MiB (14%)
Source stream size          : 242 MiB (14%)
Default                     : Yes
Alternate group             : 1
mdhd_Duration               : 10551701


File List:

Sarpatta Parambarai (2021) [Bengali Dub] 400p WEB-DLRip Saicord mp4
....
1.72 GB