Hide Your IP Address when Downloading Torrents!
Your IP Address is 182.232.198.186. Location Thailand,
Your Internet Provider can see when you download torrents! Hide your IP Address with a VPN
ETTV warns: You should use VPN to hide your torrenting. Hide IP with VPN

Download "Fleetwood Mac - Best Of 1969-1987 (PBTHAL 24-96) [FLAC] vtwin88cube"

Title:
Fleetwood Mac - Best Of 1969-1987 (PBTHAL 24-96) [FLAC] vtwin88cube
Category:
Music > FLAC
Language:
English
Total Size:
1.66 GB
Info Hash:
6b27b02f47151bc91ce20163d1c3caa32df30c32
Added By:
vtwin88cube
Date Added:
1 month ago
  • Seeds: 236
  • Leechers: 43
  • Uploaded By: vtwin88cube
Uploaders Description
Fleetwood Mac
Best Of 1969-1987
FLAC LOSSLESS 24bit-96kHz
PBTHAL VINYL TRACKS


allmusic.com...

While most bands undergo a number of changes over the course of their careers, few of them experienced more radical stylistic evolution than Fleetwood Mac. Initially conceived as a hard-edged British blues combo in the late '60s, the band gradually evolved into a polished pop/rock act over the course of a decade. Throughout all of their incarnations, the only consistent members of Fleetwood Mac were drummer Mick Fleetwood and bassist John McVie -- the rhythm section that provided the band with their name. Ironically, they had the least influence over the musical direction of the band. Originally, guitarists Peter Green and Jeremy Spencer provided the group with their gutsy, neo-psychedelic blues-rock sound, but as both guitarists descended into mental illness, the band began moving toward pop/rock with the songwriting of pianist Christine McVie. By the mid-'70s, Fleetwood Mac had relocated to California, where they added the soft rock duo of Lindsey Buckingham and Stevie Nicks to their lineup. Obsessed with the meticulously arranged pop of the Beach Boys and the Beatles, Buckingham helped the band become one of the most popular groups of the late '70s. Combining soft rock with the confessional introspection of singer/songwriters, Fleetwood Mac created a slick but emotional sound that helped 1977's Rumours become one of the biggest-selling albums of all time. The band retained their popularity through the early '80s, when Buckingham, Nicks, and Christine McVie all began pursuing solo careers.


foobar2000 1.4.3 / Dynamic Range Meter 1.1.1
log date: 2021-07-28 07:39:44

--------------------------------------------------------------------------------
Analyzed: Fleetwood Mac / Best Of '69-'87
--------------------------------------------------------------------------------

DR         Peak         RMS     Duration Track
--------------------------------------------------------------------------------
DR11      -3.57 dB   -17.13 dB      3:13 01-Albatross
DR13      -2.49 dB   -19.21 dB      2:56 02-Black Magic Woman
DR12      -0.94 dB   -14.84 dB      5:07 03-Bare Trees
DR13      -1.52 dB   -16.40 dB      4:12 04-Rhiannon
DR13      -1.09 dB   -16.24 dB      4:11 05-Say You Love Me
DR13      -0.70 dB   -15.79 dB      2:48 06-Monday Morning
DR13      -4.53 dB   -19.58 dB      3:35 07-Over My Head
DR12      -5.26 dB   -20.43 dB      3:18 08-Landslide
DR13      -1.10 dB   -16.74 dB      3:42 09-Go Your Own Way
DR15      -1.63 dB   -18.68 dB      3:16 10-Don't Stop
DR15      -0.70 dB   -18.90 dB      4:19 11-Dreams
DR13      -1.13 dB   -17.13 dB      3:35 12-You Make Loving Fun
DR15      -1.22 dB   -20.09 dB      4:27 13-The Chain
DR14      -1.24 dB   -19.29 dB      3:33 14-Tusk
DR16      -1.10 dB   -20.37 dB      6:25 15-Sara
DR15      -1.73 dB   -18.88 dB      4:29 16-Gypsy
DR13      -0.98 dB   -17.63 dB      3:41 17-Little Lies
DR14      -1.67 dB   -18.84 dB      3:47 18-Everywhere
DR14      -1.28 dB   -17.37 dB      3:43 19-Seven Wonders
DR13      -2.69 dB   -17.22 dB      4:07 20-Family Man
DR14      -0.70 dB   -16.51 dB      3:41 21-Big Love

Number of tracks:  21
Official DR value: DR14

Samplerate:        96000 Hz
Channels:          2
Bits per sample:   24
Bitrate:           3135 kbps
Codec:             FLAC




Not my rip. Any questions about the
equipment used can be found in the
lineage text.

Support the artists!

Sharing since 2010
Thanks for Seeding!
Cheers;)
88


File List:

00 -Fleetwood Mac - Best Of 1969 -1987 m3u
....
449.00 B
01 -Albatross flac
....
61 MB
02 -Black Magic Woman flac
....
59 MB
03 -Bare Trees flac
....
103 MB
04 -Rhiannon flac
....
82 MB
05 -Say You Love Me flac
....
86 MB
06 -Monday Morning flac
....
57 MB
07 -Over My Head flac
....
71 MB
08 -Landslide flac
....
63 MB
09 -Go Your Own Way flac
....
79 MB
10 -Don't Stop flac
....
68 MB
11 -Dreams flac
....
88 MB
12 -You Make Loving Fun flac
....
75 MB
13 -The Chain flac
....
91 MB
14 -Tusk flac
....
62 MB
15 -Sara flac
....
117 MB
16 -Gypsy flac
....
100 MB
17 -Little Lies flac
....
87 MB
18 -Everywhere flac
....
87 MB
19 -Seven Wonders flac
....
86 MB
20 -Family Man flac
....
95 MB
21 -Big Love flac
....
83 MB
DR14 txt
....
1.90 kB
folder png
....
215.24 kB
lineage txt
....
1.42 kB