Hide Your IP Address when Downloading Torrents!
Your IP Address is 182.232.198.186. Location Thailand,
Your Internet Provider can see when you download torrents! Hide your IP Address with a VPN
ETTV warns: You should use VPN to hide your torrenting. Hide IP with VPN

Download "Bruce Springsteen - Boss Collection '73-'02 (PBTHAL 24-96) [FLAC] vtwin88cube"

Title:
Bruce Springsteen - Boss Collection '73-'02 (PBTHAL 24-96) [FLAC] vtwin88cube
Category:
Music > FLAC
Language:
Total Size:
2.63 GB
Info Hash:
911daba5a53206991c0498fd6cc1653d1fe4be13
Added By:
vtwin88cube
Date Added:
1 month ago
  • Seeds: 223
  • Leechers: 82
  • Uploaded By: vtwin88cube
Uploaders Description
Bruce Springsteen
Boss Collection '73-'02 (2021)
FLAC LOSSLESS 24bit-96kHz
PBTHAL VINYL TRACKS


allmusic.com...

Bruce Springsteen once said he intended to make an album with words like Bob Dylan that sounded like Phil Spector where he sang like Roy Orbison, a nifty summary of many, but not all, of his artistic ambitions and a key to his appeal. Unlike any of the other singer/songwriters saddled with the appellation of "the new Dylan" in the early '70s, Springsteen never hid how he was raised on '60s AM radio. He loved rock & roll.


foobar2000 1.4.3 / Dynamic Range Meter 1.1.1
log date: 2021-07-27 16:52:06

--------------------------------------------------------------------------------
Analyzed: Bruce Springsteen / Boss Collection
--------------------------------------------------------------------------------

DR         Peak         RMS     Duration Track
--------------------------------------------------------------------------------
DR12      -2.21 dB   -16.34 dB      5:04 01-Blinded By The Light
DR11      -1.54 dB   -14.65 dB      7:03 02-Rosalita (Come Out Tonight)
DR11      -2.47 dB   -16.99 dB      4:51 03-Thunder Road
DR13      -0.70 dB   -15.80 dB      3:12 04-Tenth Avenue Freeze-Out
DR11      -1.48 dB   -15.47 dB      4:32 05-Born To Run
DR12      -1.23 dB   -16.15 dB      4:03 06-Badlands
DR11      -1.41 dB   -14.64 dB      4:00 07-Prove It All Night
DR13      -1.66 dB   -17.65 dB      4:32 08-Darkness On The Edge Of Town
DR13      -0.70 dB   -15.32 dB      3:21 09-Hungry Heart
DR12      -1.07 dB   -15.08 dB      4:18 10-Out In The Street
DR14      -1.21 dB   -17.68 dB      5:00 11-The River
DR12      -1.66 dB   -16.65 dB      4:01 12-Atlantic City
DR12      -1.82 dB   -15.72 dB      3:28 13-Cover Me
DR12      -2.71 dB   -16.14 dB      3:32 14-I'm Goin' Down
DR12      -2.26 dB   -16.14 dB      4:41 15-Born In The U.S.A.
DR14      -4.04 dB   -21.57 dB      2:46 16-I'm On Fire
DR11      -2.72 dB   -15.10 dB      4:04 17-No Surrender
DR11      -2.50 dB   -15.68 dB      4:18 18-Glory Days
DR11      -2.38 dB   -14.91 dB      4:04 19-Dancing In The Dark
DR14      -1.39 dB   -18.46 dB      4:35 20-My Hometown
DR11      -3.20 dB   -16.28 dB      4:54 21-This Hard Land
DR12      -0.10 dB   -13.72 dB      4:22 22-One Step Up
DR11      -0.10 dB   -12.87 dB      5:13 23-Tunnel Of Love
DR11      -0.10 dB   -12.90 dB      4:17 24-Brilliant Disguise
DR12      -3.29 dB   -16.48 dB      3:44 25-Better Days
DR13      -1.81 dB   -17.89 dB      5:10 26-Human Touch
DR11      -3.22 dB   -16.97 dB      3:17 27-Streets Of Philadelphia
DR11      -1.53 dB   -14.46 dB      4:08 28-Lonesome Day
DR11      -0.93 dB   -14.99 dB      4:50 29-The Rising

Number of tracks:  29
Official DR value: DR12

Samplerate:        96000 Hz
Channels:          2
Bits per sample:   24
Bitrate:           3110 kbps
Codec:             FLAC




Not my rip. Any questions about the
equipment used can be found in the
lineage text.


Support the artists!

Sharing since 2010
Thanks for Seeding!
Cheers;)
88


File List:

00 -Bruce Springsteen - Boss Collection m3u
....
744.00 B
01 -Blinded By The Light flac
....
111 MB
02 -Rosalita (Come Out Tonight) flac
....
160 MB
03 -Thunder Road flac
....
94 MB
04 -Tenth Avenue Freeze-Out flac
....
63 MB
05 -Born To Run flac
....
96 MB
06 -Badlands flac
....
89 MB
07 -Prove It All Night flac
....
91 MB
08 -Darkness On The Edge Of Town flac
....
96 MB
09 -Hungry Heart flac
....
74 MB
10 -Out In The Street flac
....
97 MB
11 -The River flac
....
106 MB
12 -Atlantic City flac
....
85 MB
13 -Cover Me flac
....
77 MB
14 -I'm Goin' Down flac
....
79 MB
15 -Born In The U S A flac
....
105 MB
16 -I'm On Fire flac
....
54 MB
17 -No Surrender flac
....
91 MB
18 -Glory Days flac
....
98 MB
19 -Dancing In The Dark flac
....
91 MB
20 -My Hometown flac
....
92 MB
21 -This Hard Land flac
....
106 MB
22 -One Step Up flac
....
84 MB
23 -Tunnel Of Love flac
....
105 MB
24 -Brilliant Disguise flac
....
86 MB
25 -Better Days flac
....
81 MB
26 -Human Touch flac
....
112 MB
27 -Streets Of Philadelphia flac
....
65 MB
28 -Lonesome Day flac
....
93 MB
29 -The Rising flac
....
108 MB
DR12 txt
....
2.47 kB
folder png
....
525.91 kB
lineage txt
....
1.52 kB