Hide Your IP Address when Downloading Torrents!
Your IP Address is 182.232.198.186. Location Thailand,
Your Internet Provider can see when you download torrents! Hide your IP Address with a VPN
ETTV warns: You should use VPN to hide your torrenting. Hide IP with VPN

Download "Hungama 2 (2021) 720p Hindi TRUE WEB-HDRip x264 AAC DD 5 1 ESub By Full4Movies"

Title:
Hungama 2 (2021) 720p Hindi TRUE WEB-HDRip x264 AAC DD 5 1 ESub By Full4Movies
Category:
Movies > Bollywood
Language:
Hindi
Total Size:
1.32 GB
Info Hash:
8c286a01eff16062d781e1f9e40fc85224c6d33c
Added By:
full4movies
Date Added:
3 months ago
  • Seeds: 841
  • Leechers: 386
  • Uploaded By: full4movies
Uploaders Description


Visit Us = https://www.full4movies.org/



General
Complete name                  : Hungama 2 (2021) 720p Hindi TRUE WEB-HDRip x264 AAC DD 5.1 ESub By Full4Movies.mkv
Format                         : Matroska
Format version                 : Version 4 / Version 2
File size                      : 1.32 GiB
Duration                       : 2 h 36 min
Overall bit rate               : 1 214 kb/s
Encoded date                   : UTC 2021-07-23 16:47:13
Writing application            : mkvmerge v8.3.0 ('Over the Horizon') 64bit
Writing library                : libebml v1.3.1 + libmatroska v1.4.2
Attachments                    : 383845052472320.jpg

Video
ID                             : 1
Format                         : AVC
Format/Info                    : Advanced Video Codec
Format profile                 : [email protected]
Format settings, CABAC         : Yes
Format settings, RefFrames     : 4 frames
Codec ID                       : V_MPEG4/ISO/AVC
Duration                       : 2 h 36 min
Bit rate                       : 1 052 kb/s
Width                          : 1 280 pixels
Height                         : 536 pixels
Display aspect ratio           : 2.40:1
Frame rate mode                : Constant
Frame rate                     : 24.000 FPS
Color space                    : YUV
Chroma subsampling             : 4:2:0
Bit depth                      : 8 bits
Scan type                      : Progressive
Bits/(Pixel*Frame)             : 0.064
Stream size                    : 1.15 GiB (87%)
Writing library                : x264 core 142 r2479 dd79a61
Default                        : Yes
Forced                         : No
Color range                    : Limited
Color primaries                : BT.709
Transfer characteristics       : BT.709
Matrix coefficients            : BT.709

Audio
ID                             : 2
Format                         : AAC
Format/Info                    : Advanced Audio Codec
Format profile                 : HE-AAC / LC
Codec ID                       : A_AAC
Duration                       : 2 h 36 min
Bit rate                       : 160 kb/s
Channel(s)                     : 6 channels
Channel positions              : Front: L C R, Side: L R, LFE
Sampling rate                  : 48.0 kHz / 24.0 kHz
Frame rate                     : 23.438 FPS (1024 SPF)
Compression mode               : Lossy
Delay relative to video        : -105 ms
Stream size                    : 179 MiB (13%)
Language                       : Hindi
Default                        : Yes
Forced                         : No

Text #1
ID                             : 3
Format                         : ASS
Codec ID                       : S_TEXT/ASS
Codec ID/Info                  : Advanced Sub Station Alpha
Duration                       : 2 h 32 min
Bit rate                       : 121 b/s
Count of elements              : 2494
Compression mode               : Lossless
Stream size                    : 135 KiB (0%)
Title                          : ESub
Language                       : English
Default                        : No
Forced                         : No

Screen Shoots








File List:

Hungama 2 (2021) 720p Hindi TRUE WEB-HDRip x264 AAC DD 5 1 ESub By Full4Movies mkv
....
1.32 GB