Evil  Rick and Morty S05E06 hostel daze season 2 Ted Lasso black widow 2021 toofan Superman and Lois Rick and Morty S05E05 jungle cruise kingdom a quiet place evo Loki S01E06 Gunpowder Milkshake 2021 fast and furious 9  Haseen dilruba Old Snake Eyes G.I. Joe Origins 2021 Nobody 2021 Animal Kingdom S05E03 the tomorrow war  Masters of the Universe F9 2021 black widow Midnight in the Switchgrass 2021 fast and furious  brazzers ufc Pig 2021 The Chi S04E09 Wrath of Man 2021 Charmed s03e18 Escape Room Tournament of Champions 2021 Blood Red Sky sarpatta tamil Old 2021 natkhat malayalam  The flash sarpatta Parambarai ettv snake eyes 2021 0 Animal kingdom ddr jungle cruise 2021 jolt 2160p escape room fast 9 loki  beats Stillwater 2021 wrath of man hostel daze hindi 2021  haseen dillruba Evil S02E06 the tomorrow war 2021 hindi Luca 2021 The Forever Purge 2021 Hitmans Wifes Bodyguard 2021 f9 Out of Death 2021 14 phere lucifer a quiet place part ii 2021 Power Book III Raising Kanan S01E02 xxx Blood Red Sky 2021 Ted Lasso S02E01 feels like ishq ita jolt 2021 Hungama 2 The Boss Baby Family Business 2021 Space Jam A New Legacy 2021 Titanic snake eyes wwe infinite 2021 rick and morty Cruella 2021 No Sudden Move 2021 chutzpah The White Lotus S01E03 space jam 
Warning! Use a VPN When Downloading Torrents!
Your IP Address is . Location
Your Internet Provider can see when you download torrents! Hide your IP Address with a VPN
ETTV warns: You should use VPN to hide your torrenting. HIDE ME NOW
ETTV Recommended TV Shows
North.Woods.Law.S16E04.1080p.WEB.h264-BAE[ettv] torrent
Adorableness.S01E03.1080p.WEB.h264-BAE[ettv] torrent
Rick.and.Morty.S05E06.1080p.WEBRip.x264-BAE[ettv] torrent
60.Minutes.S53E45.720p.WEB.h264-BAE[ettv] torrent
Teen.Mom.2.S11E12.1080p.WEB.h264-BAE[ettv] torrent
Jersey.Shore.Family.Vacation.S04E22.720p.WEB.h264-BAE[ettv] torrent

ETTV Recommended SD
Strange.Company.2021.HDRip.XviD.AC3-EVO torrent
The.Last.Letter.From.Your.Lover.2021.HDRip.XviD.AC3-EVO torrent
Assassins.Vow.2021.HDRip.XviD.AC3-EVO torrent
The.Christmas.Dance.2021.HDRip.XviD.AC3-EVO torrent

ETTV Recommended HD
The.Christmas.Dance.2021.1080p.AMZN.WEB-DL.DDP5.1.H.264-EVO.mkv torrent
Assassins Vow 2021 1080p AMZN WEB-DL DDP2 0 H 264-EVO torrent
Jolt (2021)[VEBRip 1080p x264 by alE13 AC3][Audio Eng\PL][Sub Eng\PL][Eng] torrent
Blood Red Sky 2021 1080p WEB-Rip H264 AC3 5-1 KINGDOM-RG torrent

ETTV Recommended UHD
Snyders.Cut.Justice.League.2021.DISC1.Cropped.2160p.UHD.HDR.Multilang.TrueHD.DD5.1.gerald99 torrent
Snyders.Cut.Justice.League.2021.DISC2.Cropped.2160p.UHD.HDR.Multilang.TrueHD.DD5.1.gerald99 torrent
All.Is.True.2018.2160p.WEBRip.UHD.HDR.Eng.DTS-HD.MA.DD5.1.gerald99 torrent
American.Hustle.2013.4K.SDR.2160p.WEBDL Ita Eng x265-NAHOM torrent
A.Quiet.Place.2018.BDRip.2160p.UHD.HDR.Multilang.TrueHD.DD5.1.gerald99 torrent
A.Quiet.Place.Part.II.2020.BDRip.2160p.UHD.HDR.Multilang.TrueHD.DD5.1.gerald99 torrent

ETTV Recommended Cam
Fast.And.Furious.9.2021. CAM NEW SOURCE CLEAN SomeCoontS torrent
Werewolves Within (2021) 720p English New HDCAM x264 AAC By Full4Movies torrent
Escape Room: Tournament of Champions (2021) 720p CAMRip [Hindi-Sub] x264 1XBET torrent
Snake.Eyes.2021.720p.HDCAM.SLOTSLIGHTS torrent

ETTV Recommended Foreign
The.Night.Clerk - I.Segreti.Della.Notte.2020.iTA.ENG.AC3.SUB.iTA.ENG.BluRay.1080p.x264.jeddak-MIRCrew torrent
She Wang Dao (Giant Snake) 2021 HDRip Chinese 1080p HC H264 torrent
Hard Night Falling (2019) ITA AC3 WEBRIP 1080p H264 - LZ .mkv torrent
Super.Pacifier.2020.CHINESE.1080p.WEB-DL.H264-Mkvking torrent
Skinwalker (2021) 1080p WEBRip Latino Subbed torrent
The.Hate.U.Give - Il.Coraggio.Della.Verita.2018.iTA.ENG.AC3.SUB.iTA.ENG.BluRay.1080p.x264.jeddak-MIRCrew torrent

ETTV Recommended Music
Black Sabbath - Master of Reality (2021) FLAC torrent
Elkie Brooks - Electric Lady (2005) Flac torrent
Future - EVOL (2021) FLAC torrent
The Apple Music List (ETTV)  Playlist Mp3~320   kbps~ Beats⭐ torrent
Rock Classics (ETTV)  Playlist Mp3~320   kbps~ Beats⭐ torrent
Collection Ed Sheeran (ETTV)  Playlist Mp3~320   kbps~ Beats⭐ torrent


Download Torrent "(S)ex List - What's Your Number (2011 ITA ENG) 1080p Bluray H264 XFM"

IMDB Details
Description:

N/A

Genre:

N/A

Download Torrent (Magnet)
Download Torrent (File)
Get VPN Before Download

Seeds: 73
Leechers: 29

Uploaded by:
xfmtorrent


Category:
Movies > HD 1080p (Great for large screens)


Details
Title:(S)ex List - What's Your Number (2011 ITA ENG) 1080p Bluray H264 XFM
Description:

.::TITOLO::.
(S)ex List - What's Your Number


.:: DATI ::.
Titolo originale What's Your Number?
Paese di produzione Stati Uniti d'America
Anno 2011
Durata 106 min
Rapporto 1,85:1
Genere commedia
Regia Mark Mylod
Soggetto Karyn Bosnak
Sceneggiatura Gabrielle Allan, Jennifer Crittenden
Casa di produzione Contrafilm, New Regency Pictures, Regency Enterprises
Distribuzione in italiano 20th Century Fox
Fotografia J. Michael Muro
Montaggio Julie Monroe
Effetti speciali Scott Willis
Musiche Aaron Zigman
Scenografia Jon Billington


.:: TRAMA ::.

Un giorno Ally Darling legge sulle pagine del Marie Claire i risultati di un'inchiesta secondo cui una donna americana nel corso della vita va a letto con, in media, dieci uomini e mezzo. Resasi conto di essere già arrivata a quota 19, Ally decide che il ventesimo sarà l'uomo della sua vita. Ma una mattina, dopo una notte di baldoria, scopre di aver fatto sesso con il suo capo, Mr Abominevole, sprecando così il suo numero 20. Ally, non volendo superare la soglia dei venti, considerata patologica dagli studi psicologici a cui il giornale fa riferimento, compila una lista dei suoi ex, sperando che tra di loro ci sia il suo principe azzurro. Aiutata dal vicino di casa Colin, si mette alla ricerca degli ex fidanzati, che le riserveranno però delle amare sorprese. Nella sua bizzarra ricerca, Ally scoprirà che in amore non serve fare calcoli e che l'uomo dei propri sogni arriva quando meno te lo aspetti, ed è colui con il quale puoi essere semplicemente te stessa, senza filtri...

.:: SCREENSHOT ::.



.:: AVINAPTIC ::.


Complete name                            : (S)ex.List.Whats.Your.Number.2011.1080p.ITA.ENG.Bluray.XFM.mkv
Format                                   : Matroska
Format version                           : Version 4
File size                                : 8.84 GiB
Duration                                 : 1 h 57 min
Overall bit rate                         : 10.8 Mb/s
Movie name                               : (S)ex List - 1080p - XFM
Encoded date                             : UTC 2021-07-21 21:55:39
Writing application                      : mkvmerge v55.0.0 ('Waiting For Space') 64-bit
Writing library                          : libebml v1.4.2 + libmatroska v1.6.4

Video
ID                                       : 1
Format                                   : AVC
Format/Info                              : Advanced Video Codec
Format profile                           : [email protected]
Format settings                          : CABAC / 4 Ref Frames
Format settings, CABAC                   : Yes
Format settings, Reference frames        : 4 frames
Codec ID                                 : V_MPEG4/ISO/AVC
Duration                                 : 1 h 57 min
Bit rate                                 : 9 165 kb/s
Width                                    : 1 920 pixels
Height                                   : 1 040 pixels
Display aspect ratio                     : 1.85:1
Frame rate mode                          : Constant
Frame rate                               : 23.976 (24000/1001) FPS
Color space                              : YUV
Chroma subsampling                       : 4:2:0
Bit depth                                : 8 bits
Scan type                                : Progressive
Bits/(Pixel*Frame)                       : 0.191
Stream size                              : 7.50 GiB (85%)
Title                                    : (S)ex List - 1080p - XFM
Writing library                          : x264 core 120 r2120 0c7dab9
Encoding settings                        : cabac=1 / ref=4 / deblock=1:0:0 / analyse=0x3:0x133 / me=umh / subme=8 / psy=1 / psy_rd=1.00:0.00 / mixed_ref=1 / me_range=16 / chroma_me=1 / trellis=1 / 8x8dct=1 / cqm=0 / deadzone=21,11 / fast_pskip=0 / chroma_qp_offset=-2 / threads=12 / sliced_threads=0 / nr=0 / decimate=1 / interlaced=0 / bluray_compat=0 / constrained_intra=0 / bframes=3 / b_pyramid=2 / b_adapt=1 / b_bias=0 / direct=1 / weightb=1 / open_gop=0 / weightp=2 / keyint=250 / keyint_min=23 / scenecut=40 / intra_refresh=0 / rc_lookahead=40 / rc=2pass / mbtree=1 / bitrate=9165 / ratetol=1.0 / qcomp=0.60 / qpmin=0 / qpmax=69 / qpstep=4 / cplxblur=20.0 / qblur=0.5 / ip_ratio=1.40 / aq=1:1.00
Language                                 : English
Default                                  : Yes
Forced                                   : No

Audio #1
ID                                       : 2
Format                                   : AAC LC
Format/Info                              : Advanced Audio Codec Low Complexity
Codec ID                                 : A_AAC-2
Duration                                 : 1 h 57 min
Bit rate                                 : 129 kb/s
Channel(s)                               : 2 channels
Channel layout                           : L R
Sampling rate                            : 44.1 kHz
Frame rate                               : 43.066 FPS (1024 SPF)
Compression mode                         : Lossy
Stream size                              : 108 MiB (1%)
Title                                    : Ita by XFM
Language                                 : Italian
Default                                  : Yes
Forced                                   : No

Audio #2
ID                                       : 3
Format                                   : DTS
Format/Info                              : Digital Theater Systems
Codec ID                                 : A_DTS
Duration                                 : 1 h 57 min
Bit rate mode                            : Constant
Bit rate                                 : 1 509 kb/s
Channel(s)                               : 6 channels
Channel layout                           : C L R Ls Rs LFE
Sampling rate                            : 48.0 kHz
Frame rate                               : 93.750 FPS (512 SPF)
Bit depth                                : 24 bits
Compression mode                         : Lossy
Stream size                              : 1.24 GiB (14%)
Title                                    : Eng by XFM
Language                                 : English
Default                                  : No
Forced                                   : No




.:: STATS TORRENT ::.


Category:Movies > HD 1080p
Lang:Italian  Italian
Total Size:8.84 GB
Info Hash:55b65ef896168180aa3d9ca148e53e967c61e22e
Added By:xfmtorrent
Date Added:21-07-2021 23:41:11

  

Files

File List: 
 File Size
(S)ex.List.Whats.Your.Number.2011.1080p.ITA.ENG.Bluray.XFM.mkv8.84 GB



Comments

There are currently no comments. Be the first one to write something !