ufc Good Girls s04e16 chutzpah hungama 2 2021 hungama 2 infinite 2021 jolt Hindi 2021 space jam Cruella 2021 The Tomorrow War 2021 Loki S01E06 Space Jam A New Legacy 2021 feels like ishq Masters of the Universe hostel daze  0 jungle Cruise Blood Red Sky 2021 pig 2021 Old 2021 ddr The Boss Baby Family Business 2021 Charmed s03e18 Gunpowder Milkshake 2021 black widow Hostel Daze 2 haseen dillruba 14 phere Superman and Lois Hostel Daze S02 hostel daze season 2 A Quiet Place Part II 2021 Lucifer malayalam  wwe smackdown ettv The Tomorrow War No Sudden Move 2021 evo fast and furious brazzers snake eyes 2021 ita F9 2021 Luca 2021 Charmed Tamil F9 Snake Eyes G.I. Joe Origins 2021 Good Girls s04e15 Hungama2  ted lasso escape room tournament of champions 2021 American Horror Stories S01E03 kingdom sarpatta Parambarai wrath of man escape room Walker S01E17 wwe Wrath of Man 2021 Black Widow 2021 fast 9 beats Ted Lasso S02E01 rick and morty 1 toofan bad batch 2160p Midnight in the Switchgrass 2021 Titanic Jolt 2021 hungama sarpatta  the forever purge 2021 Hitmans Wifes Bodyguard 2021 xxx Blood Red Sky fast and furious 9 old loki snake eyes nobody 2021 Alone S08E08 hindi the flash 
Warning! Use a VPN When Downloading Torrents!
Your IP Address is . Location
Your Internet Provider can see when you download torrents! Hide your IP Address with a VPN
ETTV warns: You should use VPN to hide your torrenting. HIDE ME NOW
ETTV Recommended TV Shows
Ufc.Fight.Night.Sandhagen.Vs.Dillashaw.720P.Web-Dl.H264.Fight-Bb-(ETTV)~ Beats⭐ torrent
Family.Karma.S02E07.1080p.WEB.h264-BAE[ettv] torrent
Blindspotting.S01E06.iNTERNAL.1080p.WEB.H264-GLHF[ettv] torrent
Married.to.Medicine.S08E19.1080p.WEB.h264-BAE[ettv] torrent
Power.Book.III.Raising.Kanan.S01E02.XviD-AFG[ettv] torrent
WWE Talking Smack 2021 07 24 720p Hi WEB h264-HEEL [TJET] torrent

ETTV Recommended SD
Strange.Company.2021.HDRip.XviD.AC3-EVO torrent
The.Last.Letter.From.Your.Lover.2021.HDRip.XviD.AC3-EVO torrent
Assassins.Vow.2021.HDRip.XviD.AC3-EVO torrent
The.Christmas.Dance.2021.HDRip.XviD.AC3-EVO torrent

ETTV Recommended HD
Live.and.Let.Die.1973.1080p.BluRay.10bit.x265-HazMatt.mkv torrent
Repo Man 1984 720p BluRay x264 BONE torrent
The.Christmas.Dance.2021.1080p.AMZN.WEB-DL.DDP5.1.H.264-EVO.mkv torrent
Assassins Vow 2021 1080p AMZN WEB-DL DDP2 0 H 264-EVO torrent

ETTV Recommended UHD
Snyders.Cut.Justice.League.2021.DISC1.Cropped.2160p.UHD.HDR.Multilang.TrueHD.DD5.1.gerald99 torrent
Snyders.Cut.Justice.League.2021.DISC2.Cropped.2160p.UHD.HDR.Multilang.TrueHD.DD5.1.gerald99 torrent
All.Is.True.2018.2160p.WEBRip.UHD.HDR.Eng.DTS-HD.MA.DD5.1.gerald99 torrent
American.Hustle.2013.4K.SDR.2160p.WEBDL Ita Eng x265-NAHOM torrent
A.Quiet.Place.2018.BDRip.2160p.UHD.HDR.Multilang.TrueHD.DD5.1.gerald99 torrent
A.Quiet.Place.Part.II.2020.BDRip.2160p.UHD.HDR.Multilang.TrueHD.DD5.1.gerald99 torrent

ETTV Recommended Cam
Fast.And.Furious.9.2021. CAM NEW SOURCE CLEAN SomeCoontS torrent
Werewolves Within (2021) 720p English New HDCAM x264 AAC By Full4Movies torrent
Escape Room: Tournament of Champions (2021) 720p CAMRip [Hindi-Sub] x264 1XBET torrent
Snake.Eyes.2021.720p.HDCAM.SLOTSLIGHTS torrent

ETTV Recommended Foreign
Wheel.of.Fortune.and.Fantasy.2021.1080p.WEBRip.x264.HORiZON-ArtSubs torrent
(S)ex List - What's Your Number (2011 ITA ENG) 1080p Bluray H264 XFM torrent
The.Passion.of.Joan.of.Arc.[La.Passion.de.Jeanne.d'Arc].1928.1080p.BluRay.x264.AC3.HORiZON-ArtSubs torrent
The.Night.Clerk - I.Segreti.Della.Notte.2020.iTA.ENG.AC3.SUB.iTA.ENG.BluRay.1080p.x264.jeddak-MIRCrew torrent
She Wang Dao (Giant Snake) 2021 HDRip Chinese 1080p HC H264 torrent
Hard Night Falling (2019) ITA AC3 WEBRIP 1080p H264 - LZ .mkv torrent

ETTV Recommended Music
2010s Dance Party Essentials (ETTV)  Playlist Mp3~320   kbps~ Beats⭐ torrent
Hillary Lindsey Songbook (ETTV)  Playlist Mp3~320   kbps~ Beats⭐ torrent
Beastie Boys - Aglio E Olio (2021) FLAC torrent
Sarah Connor - Real Love (Deluxe Edition) (2010) Flac torrent
Love Themes Vol 1 Vol 2 (by Ennio Morricone) YG⭐ torrent
100 Hits of Swingin Sixties (ETTV)  Playlist Mp3~320   kbps~ Beats⭐ torrent


Download Torrent "Planet Earth S02 [Hindi Dub] 1080p BDRip Saicord"

IMDB Details
Description:

Wildlife documentary series with David Attenborough, beginning with a look at the remote islands which offer sanctuary to some of the planet's rarest creatures, to the beauty of cities, which are home to humans, and animals..

Genre:

Documentary

Download Torrent (Magnet)
Download Torrent (File)
Get VPN Before Download

Seeds: 7
Leechers: 8

Uploaded by:
MelbetCinema7


Category:
TV > TV Packs


Details
Title:Planet Earth S02 [Hindi Dub] 1080p BDRip Saicord
Description:


https://www.imdb.com/title/tt5491994






Video
ID                                       : 1
Format                                   : AVC
Format/Info                              : Advanced Video Codec
Format profile                           : [email protected]
Format settings                          : CABAC / 4 Ref Frames
Format settings, CABAC                   : Yes
Format settings, Reference frames        : 4 frames
Codec ID                                 : V_MPEG4/ISO/AVC
Duration                                 : 1 h 0 min
Bit rate                                 : 3 485 kb/s
Width                                    : 1 920 pixels
Height                                   : 1 080 pixels
Display aspect ratio                     : 16:9
Frame rate mode                          : Constant
Frame rate                               : 25.000 FPS
Color space                              : YUV
Chroma subsampling                       : 4:2:0
Bit depth                                : 8 bits
Scan type                                : Progressive
Bits/(Pixel*Frame)                       : 0.067
Stream size                              : 1.46 GiB (95%)
Language                                 : English
Default                                  : Yes
Forced                                   : No
Color range                              : Limited
Color primaries                          : BT.709
Transfer characteristics                 : BT.709
Matrix coefficients                      : BT.709

Audio
ID                                       : 2
Format                                   : AAC LC
Format/Info                              : Advanced Audio Codec Low Complexity
Codec ID                                 : A_AAC-2
Duration                                 : 1 h 0 min
Bit rate                                 : 192 kb/s
Channel(s)                               : 2 channels
Channel layout                           : L R
Sampling rate                            : 48.0 kHz
Frame rate                               : 46.875 FPS (1024 SPF)
Compression mode                         : Lossy
Stream size                              : 81.5 MiB (5%)
Language                                 : Hindi
Default                                  : Yes
Forced                                   : No
Category:TV > TV Packs
Lang:Hindi  Hindi
Total Size:9.24 GB
Info Hash:3dc964d35bd7c691fac6a2a0dcc9c057a9fc72e9
Added By:MelbetCinema7
Date Added:21-07-2021 16:35:22

Files

File List: 
 File Size
Planet Earth S02E01 [Hindi Dub] 1080p BDRip Saicord.mkv1.54 GB
Planet Earth S02E02 [Hindi Dub] 1080p BDRip Saicord.mkv1.55 GB
Planet Earth S02E03 [Hindi Dub] 1080p BDRip Saicord.mkv1.53 GB
Planet Earth S02E04 [Hindi Dub] 1080p BDRip Saicord.mkv1.53 GB
Planet Earth S02E05 [Hindi Dub] 1080p BDRip Saicord.mkv1.53 GB
Planet Earth S02E06 [Hindi Dub] 1080p BDRip Saicord.mkv1.55 GB



Comments

There are currently no comments. Be the first one to write something !