Hide Your IP Address when Downloading Torrents!
Your IP Address is 182.232.198.186. Location Thailand,
Your Internet Provider can see when you download torrents! Hide your IP Address with a VPN
ETTV warns: You should use VPN to hide your torrenting. Hide IP with VPN

Download "Meander 2021 HDRip XviD B4ND1T69"

Title:
Meander 2021 HDRip XviD B4ND1T69
Category:
Movies > XviD
Language:
English
Total Size:
665 MB
Info Hash:
74b36b8c112502cf1a156576efa0563d340dff2d
Added By:
B4ND1T69
Date Added:
1 month ago
  • Seeds: 208
  • Leechers: 17
  • Uploaded By: B4ND1T69
Uploaders Description
Meander.2021.HDRip.XviD.B4ND1T69



Director: Mathieu Turi
Writer: Mathieu Turi
Stars: Gaia Weiss, Peter Franzén, Romane Libert

Plot/Story:
A woman finds herself locked in a series of strange tunnels full of deadly traps.

General
Complete name               : Meander.2021.HDRip.XviD.B4ND1T69.avi
Format                      : AVI
Format/Info                 : Audio Video Interleave
File size                   : 665 MiB
Duration                    : 1 h 30 min
Overall bit rate            : 1 024 kb/s
Subtitles                   : Yes...Hardcoded for non-English parts + file included(HI)

Video
ID                          : 0
Format                      : MPEG-4 Visual
Format profile              : Advanced [email protected]
Format settings, BVOP       : 2
Format settings, QPel       : No
Format settings, GMC        : No warppoints
Format settings, Matrix     : Default (H.263)
Codec ID                    : XVID
Codec ID/Hint               : XviD
Duration                    : 1 h 30 min
Bit rate                    : 883 kb/s
Width                       : 720 pixels
Height                      : 304 pixels
Display aspect ratio        : 2.35:1
Frame rate                  : 23.976 (24000/1001) FPS
Color space                 : YUV
Chroma subsampling          : 4:2:0
Bit depth                   : 8 bits
Scan type                   : Progressive
Compression mode            : Lossy
Bits/(Pixel*Frame)          : 0.168
Stream size                 : 573 MiB (86%)
Writing library             : XviD 64

Audio
ID                          : 1
Format                      : MPEG Audio
Format version              : Version 1
Format profile              : Layer 3
Codec ID                    : 55
Codec ID/Hint               : MP3
Duration                    : 1 h 30 min
Bit rate mode               : Constant
Bit rate                    : 128 kb/s
Channel(s)                  : 2 channels
Sampling rate               : 48.0 kHz
Compression mode            : Lossy
Stream size                 : 83.1 MiB (12%)
Alignment                   : Aligned on interleaves
Interleave, duration        : 24  ms (0.58 video frame)

Screenshots:










Please Seed For As Long As Possible
Or At Least 1:1 Ratio...Thanks
Enjoy Peeps



File List:

Downloaded from 1337x txt
....
61.00 B
Downloaded from ETTV txt
....
55.00 B
Downloaded from Glodls to txt
....
261.00 B
Downloaded from ProStyleX txt
....
54.00 B
Downloaded from The Pirate Bay txt
....
57.00 B
Meander 2021 HDRip XviD B4ND1T69 avi
....
665 MB
Meander 2021 HDRip XviD B4ND1T69 srt
....
51.31 kB