0 escape room tournament of champions 2021 the forever purge 2021 toofan 14 phere  fast and furious sarpatta Parambarai evo space jam Hostel Daze S02 Ted Lasso s02e02 Blood Red Sky 2021 malayalam  American Horror Stories S01E03 chutzpah Hungama 2021 wrath of man 2021 Jolt 2021 The Tomorrow War 2021 2160p beats Ted Lasso s02e01 fast 9 bad batch Hitmans Wifes Bodyguard 2021 Evo rick and morty tamil 2021 masters of the universe revelation Walker S01E17 Snake Eyes 2021 F9 Masters of the Universe marvel week hindi 2021 tamil Good Girls s04e15 hindi black widow kingdom ashin of the north Kanye west The Flash S07E18 Old 2021 infinite 2021 the flash ita Space Jam A New Legacy 2021 Old ted lasso Black Widow 2021 Gunpowder Milkshake 2021 midnight in the switchgrass 2021 feels like ishq lucifer  jungle Cruise Haseen Dillruba The Good Fight S05E05 Blood Red Sky wrath of man F9 2021 Good Girls s04e16 jolt pig 2021 kingdom hungama2 xxx Luca 2021 Sarpatta Alone S08E08 Hostel Daze 2 snake eyes fast and furious 9 hostel daze  hungama 2 Big Brother s23e07 ddr escape room Cruella 2021 hungama 2 2021 The outpost hungama ettv The Bad Batch s01e13 loki Kung fu Kung Fu S01E13 hostel daze season 2 wwe The Outpost s04e02 a quiet place part ii 2021 
Warning! Use a VPN When Downloading Torrents!
Your IP Address is . Location
Your Internet Provider can see when you download torrents! Hide your IP Address with a VPN
ETTV warns: You should use VPN to hide your torrenting. HIDE ME NOW
ETTV Recommended TV Shows
Desus.and.Mero.2019.S03E34.1080p.WEB.h264-KOGi[ettv] torrent
WWE Friday Night SmackDown 2021 07 23 HDTV x264-NWCHD [TJET] torrent
WWE 205 Live 2021 07 23 720p Lo WEB h264-HEEL [TJET] torrent
Secret.Celebrity.Renovation.S01E03.720p.WEB.h264-KOGi[ettv] torrent
Backyard.Bar.Wars.S01E03.720p.WEBRip.x264-BAE[ettv] torrent
Impractical.Jokers.S09E15.720p.WEB.h264-BAE[ettv] torrent

ETTV Recommended SD
Strange.Company.2021.HDRip.XviD.AC3-EVO torrent
The.Last.Letter.From.Your.Lover.2021.HDRip.XviD.AC3-EVO torrent
Assassins.Vow.2021.HDRip.XviD.AC3-EVO torrent
The.Christmas.Dance.2021.HDRip.XviD.AC3-EVO torrent

ETTV Recommended HD
Live.and.Let.Die.1973.1080p.BluRay.10bit.x265-HazMatt.mkv torrent
Repo Man 1984 720p BluRay x264 BONE torrent
The.Christmas.Dance.2021.1080p.AMZN.WEB-DL.DDP5.1.H.264-EVO.mkv torrent
Assassins Vow 2021 1080p AMZN WEB-DL DDP2 0 H 264-EVO torrent

ETTV Recommended UHD
Snyders.Cut.Justice.League.2021.DISC1.Cropped.2160p.UHD.HDR.Multilang.TrueHD.DD5.1.gerald99 torrent
Snyders.Cut.Justice.League.2021.DISC2.Cropped.2160p.UHD.HDR.Multilang.TrueHD.DD5.1.gerald99 torrent
All.Is.True.2018.2160p.WEBRip.UHD.HDR.Eng.DTS-HD.MA.DD5.1.gerald99 torrent
London Has Fallen 2016 UHD BluRay 2160p DTS-X 7.1 HEVC REMUX-SYS.mkv torrent
American.Hustle.2013.4K.SDR.2160p.WEBDL Ita Eng x265-NAHOM torrent
A.Quiet.Place.2018.BDRip.2160p.UHD.HDR.Multilang.TrueHD.DD5.1.gerald99 torrent

ETTV Recommended Cam
Fast.And.Furious.9.2021. CAM NEW SOURCE CLEAN SomeCoontS torrent
Werewolves Within (2021) 720p English New HDCAM x264 AAC By Full4Movies torrent
Escape Room: Tournament of Champions (2021) 720p CAMRip [Hindi-Sub] x264 1XBET torrent

ETTV Recommended Foreign
Wheel.of.Fortune.and.Fantasy.2021.1080p.WEBRip.x264.HORiZON-ArtSubs torrent
(S)ex List - What's Your Number (2011 ITA ENG) 1080p Bluray H264 XFM torrent
The.Passion.of.Joan.of.Arc.[La.Passion.de.Jeanne.d'Arc].1928.1080p.BluRay.x264.AC3.HORiZON-ArtSubs torrent
The.Night.Clerk - I.Segreti.Della.Notte.2020.iTA.ENG.AC3.SUB.iTA.ENG.BluRay.1080p.x264.jeddak-MIRCrew torrent
She Wang Dao (Giant Snake) 2021 HDRip Chinese 1080p HC H264 torrent
Hard Night Falling (2019) ITA AC3 WEBRIP 1080p H264 - LZ .mkv torrent

ETTV Recommended Music
Jeremih - All About You (2010) Flac torrent
Jay Sean - All Or Nothing (2010) (JP) Flac torrent
Billie Eilish Essentials (ETTV)  Playlist Mp3~320   kbps~ Beats⭐ torrent
Metallica Essentials (ETTV)  Playlist Mp3~320   kbps~ Beats⭐ torrent
Electro-Funk Essentials (ETTV)  Playlist Mp3~320   kbps~ Beats⭐ torrent
2010s Dance Party Essentials (ETTV)  Playlist Mp3~320   kbps~ Beats⭐ torrent


Download Torrent "Letters.To.Juliet.2010.iTA.ENG.AC3.SUB.iTA.ENG.BluRay.HEVC.1080p.x265.jedda..."

IMDB Details
Description:

Sophie dreams of becoming a writer and travels to Verona, Italy where she meets the "Secretaries of Juliet".

Genre:

Adventure, Comedy, Drama

Download Torrent (Magnet)
Download Torrent (File)
Get VPN Before Download

Seeds: 162
Leechers: 19

Uploaded by:
jeddak


Category:
Movies > HEVC/x265 (Super High Quality, Small size, high CPU usage)


Details
Title:Letters.To.Juliet.2010.iTA.ENG.AC3.SUB.iTA.ENG.BluRay.HEVC.1080p.x265.jedda...
Description:
 




Letters To Juliet


Titolo originale: Letters To Juliet
Genere: Commedia, Sentimentale
Anno: 2010
Regia: Gary Winick
Attori: Amanda Seyfried, Gael Garcia Bernal, Vanessa Redgrave, Christopher Egan, Franco Nero, Luisa Ranieri, Daniel Baldock, Ivana Lotito, Marina Massironi, Lidia Biondi, Giordano Formenti, Paolo Arvedi, Dario Conti, Milena Vukotic, Luisa De Santis, Angelo Infanti
Paese: USA
Durata: 105 min
Distribuzione: Eagle Pictures
Sceneggiatura: Jose Rivera, Tim Sullivan
Fotografia: Marco Pontecorvo
Montaggio: Bill Pankow
Musiche: Andrea Guerra
Produzione: Applehead Pictures, Summit Entertainment



La semplice percezione dell'amore romantico può spingere una persona a provare la sua vitalità, la sua risonanza e infine il coraggio che ci vuole per non giocare solo sul sicuro, per cambiare la propria vita. Questa è l'idea alla base della commedia romantica Letters to Juliet. Nel film, Amanda Seyfried interpreta Sophie Hall, aspirante scrittrice per rotocalchi, che assieme al suo ragazzo Victor (Gael Garcia Bernal), vola da New York in Italia per godersi un po' di tanto desiderato romanticismo. Mentre Victor non c'è a causa di alcuni affari, Sophia si ritrova a Verona nel famoso cortile di Giulietta Capuleti, dalla tragedia di Giulietta e Romeo, dove le visitatrici di tutto il mondo lasciano a Giulietta lettere di amori perduti o amori desiderati. Lì trova una lettera scritta 50 prima a Giulietta da Claire Smith (Vanessa Redgrave), alla ricerca di un giovane italiano che le faceva la corte quando era una teenager. Sophie decide di rispondere al messaggio lasciato da Claire, rimasto inspiegabilmente inevaso, e rimane molto sorpresa quando la sua lettera ispira questa, adesso nonna, a partire con lei per Verona in cerca del suo antico amore perduto (Franco Nero). Accompagnate da Charlie , il nipote di Claire, il trio cerca per tutta la Toscana e prende atto che il coraggio che serve a tutti e tre è quello di avere a che fare con l'amore, e non è cosa semplice. Sophie è inizialmente molto entusiasta di imbarcarsi in questa avventura che vede come un'occasione d’oro per la sua carriera. E' una giornalista concreta che vuole fare un salto di qualità e ha la netta sensazione che questa storia potrebbe costituire una svolta. Ma, facendosi coinvolgere da Claire in questa ricerca di una seconda occasione, si rende conto che la vera ragione che la porta ad inseguire questa storia è perché sta scappando dalle vicende della sua vita.




















General
Unique ID                   : 195149114097588186167005269060666648450 (0x92D05A2CCD37AF338A678A58EFD1E782)
Complete name               : Letters.To.Juliet.2010.iTA.ENG.AC3.SUB.iTA.ENG.BluRay.HEVC.1080p.x265.jeddak-MIRCrew.mkv
Format                      : Matroska
Format version              : Version 2
File size                   : 2.38 GiB
Duration                    : 1 h 45 min
Overall bit rate            : 3 233 kb/s
Movie name                  : Letters.To.Juliet.2010.iTA.ENG.AC3.SUB.iTA.ENG.BluRay.HEVC.1080p.x265.jeddak-MIRCrew
Encoded date                : UTC 2021-06-22 17:18:28
Writing application         : mkvmerge v5.6.0 ('Kenya Kane') built on May 27 2012 16:44:04
Writing library             : libebml v1.2.3 + libmatroska v1.3.0 / Lavf58.29.100

Video
ID                          : 1
Format                      : HEVC
Format/Info                 : High Efficiency Video Coding
Format profile              : [email protected]@Main
Codec ID                    : V_MPEGH/ISO/HEVC
Duration                    : 1 h 45 min
Bit rate                    : 2 273 kb/s
Width                       : 1 920 pixels
Height                      : 816 pixels
Display aspect ratio        : 2.35:1
Frame rate mode             : Constant
Frame rate                  : 23.976 (24000/1001) FPS
Color space                 : YUV
Chroma subsampling          : 4:2:0
Bit depth                   : 8 bits
Bits/(Pixel*Frame)          : 0.061
Stream size                 : 1.67 GiB (70%)
Title                       : ...::: jeddak MIRCrew :::...
Writing library             : x265 3.2.1+1-b5c86a64bbbe:[Linux][GCC 9.2.0][64 bit] 8bit+10bit+12bit
Encoding settings           : cpuid=1111039 / frame-threads=5 / wpp / no-pmode / no-pme / no-psnr / no-ssim / log-level=2 / input-csp=1 / input-res=1920x816 / interlace=0 / total-frames=0 / level-idc=40 / high-tier=1 / uhd-bd=0 / ref=3 / no-allow-non-conformance / no-repeat-headers / annexb / no-aud / no-hrd / info / hash=0 / no-temporal-layers / open-gop / min-keyint=24 / keyint=240 / gop-lookahead=0 / bframes=4 / b-adapt=2 / b-pyramid / bframe-bias=0 / rc-lookahead=20 / lookahead-slices=5 / scenecut=40 / radl=0 / no-splice / no-intra-refresh / ctu=64 / min-cu-size=8 / no-rect / no-amp / max-tu-size=32 / tu-inter-depth=1 / tu-intra-depth=1 / limit-tu=0 / rdoq-level=0 / dynamic-rd=0.00 / no-ssim-rd / signhide / no-tskip / nr-intra=0 / nr-inter=0 / no-constrained-intra / strong-intra-smoothing / max-merge=3 / limit-refs=1 / no-limit-modes / me=1 / subme=2 / merange=57 / temporal-mvp / no-hme / weightp / no-weightb / no-analyze-src-pics / deblock=0:0 / sao / no-sao-non-deblock / rd=3 / selective-sao=4 / early-skip / rskip / no-fast-intra / no-tskip-fast / no-cu-lossless / b-intra / no-splitrd-skip / rdpenalty=0 / psy-rd=2.00 / psy-rdoq=0.00 / no-rd-refine / no-lossless / cbqpoffs=0 / crqpoffs=0 / rc=abr / bitrate=2350 / qcomp=0.60 / qpstep=4 / stats-write=0 / stats-read=0 / ipratio=1.40 / pbratio=1.30 / aq-mode=2 / aq-strength=1.00 / cutree / zone-count=0 / no-strict-cbr / qg-size=32 / no-rc-grain / qpmax=69 / qpmin=0 / no-const-vbv / sar=1 / overscan=0 / videoformat=5 / range=0 / colorprim=1 / transfer=1 / colormatrix=1 / chromaloc=0 / display-window=0 / cll=0,0 / min-luma=0 / max-luma=255 / log2-max-poc-lsb=8 / vui-timing-info / vui-hrd-info / slices=1 / no-opt-qp-pps / no-opt-ref-list-length-pps / no-multi-pass-opt-rps / scenecut-bias=0.05 / no-opt-cu-delta-qp / no-aq-motion / no-hdr / no-hdr-opt / no-dhdr10-opt / no-idr-recovery-sei / analysis-reuse-level=5 / scale-factor=0 / refine-intra=0 / refine-inter=0 / refine-mv=1 / refine-ctu-distortion=0 / no-limit-sao / ctu-info=0 / no-lowpass-dct / refine-analysis-type=0 / copy-pic=1 / max-ausize-factor=1.0 / no-dynamic-refine / no-single-sei / no-hevc-aq / no-svt / no-field / qp-adaptation-range=1.00
Default                     : Yes
Forced                      : No
Color range                 : Limited
Color primaries             : BT.709
Transfer characteristics    : BT.709
Matrix coefficients         : BT.709
Duration_Source             : General_Duration

Audio #1
ID                          : 2
Format                      : AC-3
Format/Info                 : Audio Coding 3
Commercial name             : Dolby Digital
Codec ID                    : A_AC3
Duration                    : 1 h 45 min
Bit rate mode               : Constant
Bit rate                    : 448 kb/s
Channel(s)                  : 6 channels
Channel layout              : L R C LFE Ls Rs
Sampling rate               : 48.0 kHz
Frame rate                  : 31.250 FPS (1536 SPF)
Compression mode            : Lossy
Delay relative to video     : -5 ms
Stream size                 : 338 MiB (14%)
Title                       : iTA AC3 5.1
Language                    : Italian
Service kind                : Complete Main
Default                     : Yes
Forced                      : No
Duration_Source             : General_Duration

Audio #2
ID                          : 3
Format                      : AC-3
Format/Info                 : Audio Coding 3
Commercial name             : Dolby Digital
Codec ID                    : A_AC3
Duration                    : 1 h 45 min
Bit rate mode               : Constant
Bit rate                    : 448 kb/s
Channel(s)                  : 6 channels
Channel layout              : L R C LFE Ls Rs
Sampling rate               : 48.0 kHz
Frame rate                  : 31.250 FPS (1536 SPF)
Compression mode            : Lossy
Delay relative to video     : -5 ms
Stream size                 : 338 MiB (14%)
Title                       : ENG AC3 5.1
Language                    : English
Service kind                : Complete Main
Default                     : No
Forced                      : No

Text #1
ID                          : 4
Format                      : UTF-8
Codec ID                    : S_TEXT/UTF8
Codec ID/Info               : UTF-8 Plain Text
Title                       : iTA NON UDENTI
Language                    : Italian
Default                     : No
Forced                      : No

Text #2
ID                          : 5
Format                      : UTF-8
Codec ID                    : S_TEXT/UTF8
Codec ID/Info               : UTF-8 Plain Text
Title                       : ENG NON UDENTI
Language                    : English
Default                     : No
Forced                      : No

Menu
00:00:00.000                : :Capitolo 01
00:06:27.053                : :Capitolo 02
00:10:30.213                : :Capitolo 03
00:18:09.672                : :Capitolo 04
00:26:17.284                : :Capitolo 05
00:30:36.460                : :Capitolo 06
00:33:54.950                : :Capitolo 07
00:40:29.510                : :Capitolo 08
00:46:29.495                : :Capitolo 09
00:52:34.943                : :Capitolo 10
00:57:49.967                : :Capitolo 11
01:03:22.507                : :Capitolo 12
01:07:39.764                : :Capitolo 13
01:15:09.130                : :Capitolo 14
01:21:20.793                : :Capitolo 15
01:27:43.383                : :Capitolo 16
01:31:27.774                : :Capitolo 17
01:35:06.784                : :Capitolo 18
Category:Movies > HEVC/x265
Lang:Italian  Italian
Total Size:2.38 GB
Info Hash:faa96738160dbcaaac5daeedf54791d62c6331ca
Added By:jeddak
Date Added:22-06-2021 19:27:08

  

Files

File List: 
 File Size
Letters.To.Juliet.2010.iTA.ENG.AC3.SUB.iTA.ENG.BluRay.HEVC.1080p.x265.jeddak-MIRCrew.mkv2.38 GB



Comments

There are currently no comments. Be the first one to write something !