Rurouni Kenshin ettv Evil S02E01 sunflower Xxx f9 Jagame Thandhiram Peter Rabbit 2 The Runaway 2021 infinite Wicked Tuna S10E17 The Conjuring The Devil Made Me Do It 2021 a quiet place part ii 2020 ddr a quiet place 2021 etmovies 90 Day Fiance Happily Ever After S06E09 lucifer  ita rick and morty season 5 malayalam wwe legends of tomorrow Kevin Can Fk Himself S01E01 Batwoman  formula 1 Batwoman S02E17 Van Helsing S05E11 MasterChef Australia S13E46 Nobody 2021 Windows 11 Wrath of Man 2021 the flash The Hitmans Wifes Bodyguard 2021 Fatherhood 2021 Luca ethd Evil  A Quiet Place Part II 2021 KEVIN CAN FK HIMSELF s01e02 sherni rick and morty evo A quiet place 2 hindi rick and morty s05e01 the family man Last Week Tonight with John Oliver s08e16 keeping up with the kardashians s20e14 tamil etrg A Quiet Place Part II Infinite 2021 a quiet place motogp Time Loki s01e01 Hitmans Wifes Bodyguard 2021 0 cruella 2021 fast and furious 9 2160p a quiet place part 2 The Misfits 2021 yts ufc Loki s01e02 F9 2021 luca 2021 Fear the walking dead hindi 2021  loki war of the worlds 
Warning! Use a VPN When Downloading Torrents!
Your IP Address is . Location
Your Internet Provider can see when you download torrents! Hide your IP Address with a VPN
ETTV warns: You should use VPN to hide your torrenting. HIDE ME NOW
ETTV Recommended TV Shows
WWE Monday Night Raw 2021 06 21 HDTV x264-NWCHD [TJET] torrent
Hells.Kitchen.US.S20E04.WEB.h264-BAE[ettv] torrent
Deadliest.Catch.Bloodline.S02E10.This.is.My.Family.720p.WEB.h264-CAFFEiNE[ettv] torrent
Days.Of.Our.Lives.S56E189.720p.WEB.h264-KOGi[ettv] torrent
American.Pickers.S22E14.720p.WEB.h264-BAE[ettv] torrent
Holby.City.S23E12.720p.HDTV.x264-ORGANiC[ettv] torrent

ETTV Recommended SD
The.Paper.Tigers.2021.BRRip.XviD.AC3-EVO torrent
Me.Myself.and.Di.2021.HDRip.XviD.AC3-EVO torrent
Babysitter.Must.Die.2021.HDRip.XviD.AC3-EVO torrent
Clairevoyant.2021.HDRip.XviD.AC3-EVO torrent

ETTV Recommended HD
Get Rich or Die Tryin\' (2005) + Extras (1080p BluRay x265 HEVC 10bit EAC3 5.1 English + German + French + Japanese SAMPA) [QxR] torrent
Underworld Blood Wars (2016) 3D HSBS 1080p H264 DolbyD 5.1 ūüĎď ¬©ÔłŹnickarad torrent
The Rising Hawk (2019)[BDRemux 1080p x 264 by alE13 AC3/DTS][Audio Eng\PL & Sub Eng][Eng] torrent
Guilty as Sin (1993) [1080p]  [WebRip] [YTS] torrent

ETTV Recommended UHD
End.of.Watch.2012.BluRay.1080p.DTS-HD.MA.5.1.AVC.REMUX-FraMeSToR torrent
Aliens.1986.Special.Edition.BluRay.1080p.DTS-HD.MA.5.1.AVC.REMUX-FraMeSToR.mkv torrent
Children.of.Men.2006.BluRay.1080p.DTS-HD.MA.5.1.AVC.REMUX-FraMeSToR torrent
Chronicle.Directors.Cut.2012.BluRay.1080p.DTS-HD.MA.5.1.AVC.REMUX-FraMeSToR torrent
Citizen.Kane.1941.BluRay.1080p.DTS-HD.MA.1.0.AVC.REMUX-FraMeSToR torrent
La La Land.2016.4K.HDR.2160p.BDRip Ita Eng x265-NAHOM torrent

ETTV Recommended Cam
Fast.And.Furious.9.2021. CAM NEW SOURCE CLEAN SomeCoontS torrent
A.Quiet.Place.Part.II.2021.TC720p.Clean.Cam.H264.AC3.WARRIORS torrent
The Hitmans Wifes Bodyguard (2021) 720p English HDCAM-Rip x264 AAC By Full4Movies torrent
Ascendant (2021) 720p HDCAM English New Movie x264 AAC By Full4Movies torrent

ETTV Recommended Foreign
The Night Beyond The Tricornered Window 2021 720p Japanese BluRay H264 BONE torrent
Les.Miserables.2012.iTA.ENG.AC3.SUB.iTA.ENG.BluRay.HEVC.1080p.x265.jeddak-MIRCrew torrent
Hidden.Away.[Volevo.Nascondermi].2020.BluRay.1080p.x264.AC3.HORiZON-ArtSubs torrent
The Great Mouse Detective 1986 x264 1080p Esub English Hindi THE GOPI SAHI torrent
Color Rush 2021 720p Korean WEB-DL H264 BONE torrent
Letters.To.Juliet.2010.iTA.ENG.AC3.SUB.iTA.ENG.BluRay.HEVC.1080p.x265.jeddak-MIRCrew torrent

ETTV Recommended Music
Nemesea - In Control (2007) Flac torrent
 Forrest Gump Soundtarck Mp-3 1994 torrent
[folk-rock, pop] (2021) Norma Tanega - Walkin' My Cat Named Dog [Expanded Edition] [FLAC] [DarkAngie] torrent
[alt-country, southern rock] (2020) Ryan Hamilton and the Harlequin Ghosts - Nowhere to Go but Everywhere [FLAC] [DarkAngie] torrent
[folk-rock, indie-folk] (2021) Hiss Golden Messenger - Quietly Blowing It [FLAC] [DarkAngie] torrent
[americana, rock] (2021) Daniel Romano's Outfit - Fully Plugged In [FLAC] [DarkAngie] torrent


Download Torrent "The Perks Of Being A Wallflower [2012] 1080p BDRip x265 DTS-HD MA 5.1 Kira ..."

IMDB Details
Description:

An introvert freshman is taken under the wings of two seniors who welcome him to the real world.

Genre:

Drama, Romance

Download Torrent (Magnet)
Download Torrent (File)

Seeds: 98
Leechers: 36

Uploaded by:
D0ct0rLew


Category:
Movies > HEVC/x265 (Super High Quality, Small size, high CPU usage)


Details
Title:The Perks Of Being A Wallflower [2012] 1080p BDRip x265 DTS-HD MA 5.1 Kira ...
Description:



Screenshot's
Source vs Encode:-
-----------
-----------
-----------
-----------
-----------
-----------
-----------
-----------
-----------


Media Information
General
Unique ID                   : 179293979141264998536568337912612695539 (0x86E2C3AAFA15592D3E0E55E8EECAADF3)
Complete name               : The Perks Of Being A Wallflower [2012] 1080p BDRip x265 DTS-HD MA 5.1 Kira [SEV].mkv
Format                      : Matroska
Format version              : Version 4
File size                   : 15.4 GiB
Duration                    : 1 h 42 min
Overall bit rate mode       : Variable
Overall bit rate            : 21.4 Mb/s
Movie name                  : | The Perks Of Being A Wallflower [2012] | 1080p | BDRip | x265 | DTS:HD MA 5.1 @ 3805 Kbps | Kira [SEV] |
Encoded date                : UTC 2021-05-15 15:37:43
Writing application         : mkvmerge v56.1.0 ('My Friend') 64-bit
Writing library             : libebml v1.4.2 + libmatroska v1.6.4

Video
ID                          : 1
Format                      : HEVC
Format/Info                 : High Efficiency Video Coding
Format profile¬† ¬† ¬† ¬† ¬† ¬† ¬† : Main [email protected]@High
Codec ID                    : V_MPEGH/ISO/HEVC
Duration                    : 1 h 42 min
Bit rate                    : 17.0 Mb/s
Width                       : 1 920 pixels
Height                      : 1 080 pixels
Display aspect ratio        : 16:9
Frame rate mode             : Constant
Frame rate                  : 23.976 (24000/1001) FPS
Color space                 : YUV
Chroma subsampling          : 4:2:0
Bit depth                   : 10 bits
Bits/(Pixel*Frame)          : 0.342
Stream size                 : 12.2 GiB (79%)
Title                       : | The Perks Of Being A Wallflower [2012] | 1080p | BDRip | x265 | DTS:HD MA 5.1 @ 3805 Kbps | Kira [SEV] |
Writing library             : x265 3.5+9-bf91444e0:[Windows][MSVC 1928][64 bit] 10bit
Encoding settings           : cpuid=1111039 / frame-threads=2 / numa-pools=4 / wpp / no-pmode / no-pme / no-psnr / no-ssim / log-level=2 / input-csp=1 / input-res=1920x1080 / interlace=0 / total-frames=147696 / level-idc=0 / high-tier=1 / uhd-bd=0 / ref=5 / no-allow-non-conformance / no-repeat-headers / annexb / no-aud / no-eob / no-eos / no-hrd / info / hash=0 / no-temporal-layers / open-gop / min-keyint=23 / keyint=250 / gop-lookahead=0 / bframes=16 / b-adapt=2 / b-pyramid / bframe-bias=0 / rc-lookahead=100 / lookahead-slices=0 / scenecut=40 / hist-scenecut=0 / radl=0 / no-splice / no-intra-refresh / ctu=64 / min-cu-size=8 / no-rect / no-amp / max-tu-size=32 / tu-inter-depth=4 / tu-intra-depth=4 / limit-tu=4 / rdoq-level=2 / dynamic-rd=0.00 / no-ssim-rd / signhide / no-tskip / nr-intra=0 / nr-inter=0 / no-constrained-intra / no-strong-intra-smoothing / max-merge=4 / limit-refs=1 / limit-modes / me=3 / subme=7 / merange=92 / temporal-mvp / no-frame-dup / no-hme / weightp / weightb / no-analyze-src-pics / deblock=0:0 / no-sao / no-sao-non-deblock / rd=6 / selective-sao=0 / no-early-skip / rskip / no-fast-intra / no-tskip-fast / no-cu-lossless / b-intra / no-splitrd-skip / rdpenalty=0 / psy-rd=2.00 / psy-rdoq=1.00 / no-rd-refine / no-lossless / cbqpoffs=0 / crqpoffs=0 / rc=abr / bitrate=17000 / qcomp=0.60 / qpstep=4 / stats-write=0 / stats-read=2 / cplxblur=20.0 / qblur=0.5 / ipratio=1.40 / pbratio=1.30 / aq-mode=3 / aq-strength=1.50 / cutree / zone-count=0 / no-strict-cbr / qg-size=32 / no-rc-grain / qpmax=69 / qpmin=0 / no-const-vbv / sar=0 / overscan=0 / videoformat=5 / range=0 / colorprim=2 / transfer=2 / colormatrix=2 / chromaloc=0 / display-window=0 / cll=0,0 / min-luma=0 / max-luma=1023 / log2-max-poc-lsb=8 / vui-timing-info / vui-hrd-info / slices=1 / no-opt-qp-pps / no-opt-ref-list-length-pps / no-multi-pass-opt-rps / scenecut-bias=0.05 / hist-threshold=0.03 / no-opt-cu-delta-qp / no-aq-motion / no-hdr10 / no-hdr10-opt / no-dhdr10-opt / no-idr-recovery-sei / analysis-reuse-level=0 / analysis-save-reuse-level=0 / analysis-load-reuse-level=0 / scale-factor=0 / refine-intra=0 / refine-inter=0 / refine-mv=1 / refine-ctu-distortion=0 / no-limit-sao / ctu-info=0 / no-lowpass-dct / refine-analysis-type=0 / copy-pic=1 / max-ausize-factor=1.0 / no-dynamic-refine / no-single-sei / no-hevc-aq / no-svt / no-field / qp-adaptation-range=1.00 / scenecut-aware-qp=0conformance-window-offsets / right=0 / bottom=0 / decoder-max-rate=0 / no-vbv-live-multi-pass
Language                    : English
Default                     : Yes
Forced                      : No

Audio #1
ID                          : 2
Format                      : DTS XLL
Format/Info                 : Digital Theater Systems
Commercial name             : DTS-HD Master Audio
Codec ID                    : A_DTS
Duration                    : 1 h 42 min
Bit rate mode               : Variable
Bit rate                    : 3 805 kb/s
Channel(s)                  : 6 channels
Channel layout              : C L R Ls Rs LFE
Sampling rate               : 48.0 kHz
Frame rate                  : 93.750 FPS (512 SPF)
Bit depth                   : 24 bits
Compression mode            : Lossless
Stream size                 : 2.73 GiB (18%)
Title                       : English BD DTS:HD MA 5.1 @ 3805 Kbps
Language                    : English
Default                     : Yes
Forced                      : No

Audio #2
ID                          : 3
Format                      : AC-3
Format/Info                 : Audio Coding 3
Commercial name             : Dolby Digital
Codec ID                    : A_AC3
Duration                    : 1 h 42 min
Bit rate mode               : Constant
Bit rate                    : 224 kb/s
Channel(s)                  : 2 channels
Channel layout              : L R
Sampling rate               : 48.0 kHz
Frame rate                  : 31.250 FPS (1536 SPF)
Compression mode            : Lossy
Stream size                 : 164 MiB (1%)
Title                       : Commentary by director Stephen Chbosky
Language                    : English
Service kind                : Complete Main
Default                     : No
Forced                      : No

Audio #3
ID                          : 4
Format                      : AC-3
Format/Info                 : Audio Coding 3
Commercial name             : Dolby Digital
Codec ID                    : A_AC3
Duration                    : 1 h 42 min
Bit rate mode               : Constant
Bit rate                    : 224 kb/s
Channel(s)                  : 2 channels
Channel layout              : L R
Sampling rate               : 48.0 kHz
Frame rate                  : 31.250 FPS (1536 SPF)
Compression mode            : Lossy
Stream size                 : 164 MiB (1%)
Title                       : Commentary by director Stephen Chbosky and actors Logan Lerman, Ezra Miller, Johnny Simmons, Emma Watson, Mae Whitman and Erin Wilhelm
Language                    : English
Service kind                : Complete Main
Default                     : No
Forced                      : No

Text #1
ID                          : 5
Format                      : PGS
Codec ID                    : S_HDMV/PGS
Codec ID/Info               : Picture based subtitle format used on BDs/HD-DVDs
Duration                    : 1 h 42 min
Bit rate                    : 64.4 kb/s
Count of elements           : 3347
Stream size                 : 47.1 MiB (0%)
Title                       : English SDH BD PGS Sub
Language                    : English
Default                     : Yes
Forced                      : No

Text #2
ID                          : 6
Format                      : PGS
Codec ID                    : S_HDMV/PGS
Codec ID/Info               : Picture based subtitle format used on BDs/HD-DVDs
Duration                    : 1 h 36 min
Bit rate                    : 60.1 kb/s
Count of elements           : 2939
Stream size                 : 41.5 MiB (0%)
Title                       : English BD PGS Sub
Language                    : English
Default                     : No
Forced                      : No

Text #3
ID                          : 7
Format                      : PGS
Codec ID                    : S_HDMV/PGS
Codec ID/Info               : Picture based subtitle format used on BDs/HD-DVDs
Duration                    : 1 h 37 min
Bit rate                    : 57.4 kb/s
Count of elements           : 2961
Stream size                 : 40.2 MiB (0%)
Title                       : Spanish BD PGS Sub
Language                    : Spanish
Default                     : No
Forced                      : No

Menu
00:00:00.000                : Chapter 1
00:05:04.387                : Chapter 2
00:10:24.624                : Chapter 3
00:17:06.984                : Chapter 4
00:21:38.005                : Chapter 5
00:28:31.501                : Chapter 6
00:33:09.070                : Chapter 7
00:39:55.351                : Chapter 8
00:47:17.001                : Chapter 9
00:54:38.859                : Chapter 10
00:58:15.951                : Chapter 11
01:03:17.961                : Chapter 12
01:10:13.126                : Chapter 13
01:18:31.790                : Chapter 14
01:23:11.612                : Chapter 15
01:31:12.384                : Chapter 16


Source Information
The.Perks.of.Being.a.Wallflower.2012.1080p.BluRay.REMUX.AVC.DTS-HD.MA.5.1-EPSiLON (28.1 GB)
General
Unique ID                   : 42196795152435690349611050789941781849 (0x1FBECEA0578E6215BD2D54610BC7A559)
Complete name               : The.Perks.of.Being.a.Wallflower.2012.1080p.BluRay.REMUX.AVC.DTS-HD.MA.5.1-EPSiLON.mkv
Format                      : Matroska
Format version              : Version 4
File size                   : 28.1 GiB
Duration                    : 1 h 42 min
Overall bit rate mode       : Variable
Overall bit rate            : 39.2 Mb/s
Encoded date                : UTC 2017-07-01 06:08:01
Writing application         : mkvmerge v13.0.0 ('The Juggler') 64bit
Writing library             : libebml v1.3.4 + libmatroska v1.4.5

Video
ID                          : 1
Format                      : AVC
Format/Info                 : Advanced Video Codec
Format profile¬† ¬† ¬† ¬† ¬† ¬† ¬† : [email protected]
Format settings             : CABAC / 2 Ref Frames
Format settings, CABAC      : Yes
Format settings, Reference  : 2 frames
Format settings, GOP        : M=1, N=10
Codec ID                    : V_MPEG4/ISO/AVC
Duration                    : 1 h 42 min
Bit rate mode               : Variable
Bit rate                    : 34.8 Mb/s
Width                       : 1 920 pixels
Height                      : 1 080 pixels
Display aspect ratio        : 16:9
Frame rate mode             : Constant
Frame rate                  : 23.976 (24000/1001) FPS
Color space                 : YUV
Chroma subsampling          : 4:2:0
Bit depth                   : 8 bits
Scan type                   : Progressive
Bits/(Pixel*Frame)          : 0.699
Stream size                 : 24.9 GiB (89%)
Title                       : MPEG-4 AVC Video / 34769 kbps / 1080p / 23.976 fps / 16:9 / High Profile 4.1
Language                    : English
Default                     : Yes
Forced                      : No

Audio #1
ID                          : 2
Format                      : DTS XLL
Format/Info                 : Digital Theater Systems
Commercial name             : DTS-HD Master Audio
Codec ID                    : A_DTS
Duration                    : 1 h 42 min
Bit rate mode               : Variable
Bit rate                    : 3 805 kb/s
Channel(s)                  : 6 channels
Channel layout              : C L R Ls Rs LFE
Sampling rate               : 48.0 kHz
Frame rate                  : 93.750 FPS (512 SPF)
Bit depth                   : 24 bits
Compression mode            : Lossless
Stream size                 : 2.73 GiB (10%)
Title                       : DTS-HD Master Audio / 5.1 / 48 kHz / 3805 kbps / 24-bit
Language                    : English
Default                     : Yes
Forced                      : No

Audio #2
ID                          : 3
Format                      : AC-3
Format/Info                 : Audio Coding 3
Commercial name             : Dolby Digital
Codec ID                    : A_AC3
Duration                    : 1 h 42 min
Bit rate mode               : Constant
Bit rate                    : 224 kb/s
Channel(s)                  : 2 channels
Channel layout              : L R
Sampling rate               : 48.0 kHz
Frame rate                  : 31.250 FPS (1536 SPF)
Compression mode            : Lossy
Stream size                 : 164 MiB (1%)
Title                       : Commentary by director Stephen Chbosky
Language                    : English
Service kind                : Complete Main
Default                     : No
Forced                      : No

Audio #3
ID                          : 4
Format                      : AC-3
Format/Info                 : Audio Coding 3
Commercial name             : Dolby Digital
Codec ID                    : A_AC3
Duration                    : 1 h 42 min
Bit rate mode               : Constant
Bit rate                    : 224 kb/s
Channel(s)                  : 2 channels
Channel layout              : L R
Sampling rate               : 48.0 kHz
Frame rate                  : 31.250 FPS (1536 SPF)
Compression mode            : Lossy
Stream size                 : 164 MiB (1%)
Title                       : Commentary by director Stephen Chbosky and actors Logan Lerman, Ezra Miller, Johnny Simmons, Emma Watson, Mae Whitman and Erin Wilhelm
Language                    : English
Service kind                : Complete Main
Default                     : No
Forced                      : No

Text #1
ID                          : 5
Format                      : PGS
Codec ID                    : S_HDMV/PGS
Codec ID/Info               : Picture based subtitle format used on BDs/HD-DVDs
Duration                    : 1 h 36 min
Bit rate                    : 60.1 kb/s
Count of elements           : 2939
Stream size                 : 41.5 MiB (0%)
Language                    : English
Default                     : No
Forced                      : No

Text #2
ID                          : 6
Format                      : PGS
Codec ID                    : S_HDMV/PGS
Codec ID/Info               : Picture based subtitle format used on BDs/HD-DVDs
Duration                    : 1 h 42 min
Bit rate                    : 64.4 kb/s
Count of elements           : 3347
Stream size                 : 47.1 MiB (0%)
Title                       : SDH
Language                    : English
Default                     : No
Forced                      : No

Text #3
ID                          : 7
Format                      : PGS
Codec ID                    : S_HDMV/PGS
Codec ID/Info               : Picture based subtitle format used on BDs/HD-DVDs
Duration                    : 1 h 37 min
Bit rate                    : 57.4 kb/s
Count of elements           : 2961
Stream size                 : 40.2 MiB (0%)
Language                    : Spanish
Default                     : No
Forced                      : No

Menu
00:00:00.000                : en:Chapter 1
00:05:04.387                : en:Chapter 2
00:10:24.624                : en:Chapter 3
00:17:06.984                : en:Chapter 4
00:21:38.005                : en:Chapter 5
00:28:31.501                : en:Chapter 6
00:33:09.070                : en:Chapter 7
00:39:55.351                : en:Chapter 8
00:47:17.001                : en:Chapter 9
00:54:38.859                : en:Chapter 10
00:58:15.951                : en:Chapter 11
01:03:17.961                : en:Chapter 12
01:10:13.126                : en:Chapter 13
01:18:31.790                : en:Chapter 14
01:23:11.612                : en:Chapter 15
01:31:12.384                : en:Chapter 16


We have no issue with individuals posting or re-uploading our torrents on a platform we aren't on. However, if this is something you'd like to do, please do so in a 'as-is' format. We ask that you do not create a new torrent, include all descriptions you see above including the SEV logo, tags, notes and screenshots. If you'd like to become a permanent poster on a website we don't post to, feel free to get in contact with a Sublime Encoded Video member.

We are recruiting/training new members for SEV & seedbox providers as well as people to help out with subtitles.
As you already know, we deliver quality, so you know the standard.
If you're interested, feel free to contact any of the team members.


Category:Movies > HEVC/x265
Lang:English  English
Total Size:15.37 GB
Info Hash:ce54e00fd1a8cd772885e8a7816b09f879d8614d
Added By:D0ct0rLew
Date Added:11-06-2021 05:55:08

Files

File List: 
 File Size
Contact SEV.txt1.03 kB
The Perks Of Being A Wallflower [2012] 1080p BDRip x265 DTS-HD MA 5.1 Kira [SEV].mkv15.37 GB



Comments

There are currently no comments. Be the first one to write something !