jagame thanthiram physical xxx Jagame Thandiram Wrath of Man 2021 Elite S04 ddr F9 2021 JAGAME THANDHIRAM Tamil Legacies s03e15 Nobody 2021 Luca 2021 sunflower Hitmans Wifes Bodyguard 2021 0 A quiet place part II The Conjuring The Devil Made Me Do It 2021 f9 elite fatherhood jagame jagame thandhiram 2021 ettv War of the worlds The Handmaids Tale S04E10 Infinite 2021 windows 11 jagame thandhiram A Quiet Place Part 2  loki S01E01 the flash hindi loki evo the blacklist  a quiet place wwe sherni 2021 The Hitmans Wifes Bodyguard 2021 The Misfits 2021 Infinite sherni Walker s01e14 ita The Bad Batch s01e08 tamil yts cruella 2021 elite season 4 F1 The Blacklist S08E21 Alone s08e03 a quiet place 2 Legacies etrg Rurouni kenshin etmovies Superdeep Clarice s01e12 A Quiet Place Part II 2021 Loki S01E02 Hindi 2021 bad batch 1 peter rabbit 2 the runaway 2021 A Quiet Place Part II 2020 fast and furious 9 ethd loki hindi Superman and Lois S01E10 fear the walking dead  Malayalam  luca 
Warning! Use a VPN When Downloading Torrents!
Your IP Address is . Location
Your Internet Provider can see when you download torrents! Hide your IP Address with a VPN
ETTV warns: You should use VPN to hide your torrenting. HIDE ME NOW
ETTV Recommended TV Shows
WWE Friday Night SmackDown 2021 06 18 HDTV x264-NWCHD [TJET] torrent
WWE 205 Live 2021 06 18 720p Lo WEB h264-HEEL [TJET] torrent
Charmed.2018.S03E15.720p.WEB.H264-PLZPROPER[ettv] torrent
Mythic.Quest.Ravens.Banquet.S02E08.PROPER.720p.WEB.h264-KOGi[ettv] torrent
Home.Before.Dark.S02E02.PROPER.720p.WEB.h264-KOGi[ettv] torrent
Van.Helsing.S05E10.720p.WEB.H264-GLHF[ettv] torrent

ETTV Recommended SD
Triumph.2021.HDRip.XviD.AC3-EVO torrent
Crypto.Legacy.2020.HDRip.XviD.AC3-EVO torrent
Censor.2021.HDRip.XviD.AC3-EVO torrent
Rollers.2021.HDRip.XviD.AC3-EVO torrent

ETTV Recommended HD
Hotel.Rwanda.2004.1080p.BluRay.10bit.x265-HazMatt.mkv torrent
The Lone Ranger 2013 1080p BluRay x264 DTS - 5-1  KINGDOM-RG torrent
Fatherhood.2021.1080p.NF.WEB-DL.DDP5.1.Atmos.x264-EVO[ettv] torrent
The Hitmans Bodyguard 2017 1080p BluRay x264 DTS - 5-1 KINGDOM-RG torrent

ETTV Recommended UHD
Wrath.of.Man.2021.2160p.HDR.mUHD.WebRip.HEVC.DDP5.1-DDR.mkv torrent
King.Kong.2005.EXTENDED.4K.HDR.2160p.BDRip Ita Eng x265-NAHOM torrent
Hunger Games 2012 BluRay 1080p  x265 DTS-HD MA 7.1 D0ct0rLew[SEV] torrent
Minority.Report.2002.4K.SDR.2160p.WEBDL Ita Eng x265-NAHOM torrent
Saw.2004.4K.HDR.2160p.BDRip Ita Eng x265-NAHOM torrent
Blood.Simple.1984.4K.SDR.2160p.WEBDL Ita Eng x265-NAHOM torrent

ETTV Recommended Cam
Fast.And.Furious.9.2021. CAM NEW SOURCE CLEAN SomeCoontS torrent
A.Quiet.Place.Part.II.2021.TC720p.Clean.Cam.H264.AC3.WARRIORS torrent
The Hitmans Wifes Bodyguard (2021) 720p English HDCAM-Rip x264 AAC By Full4Movies torrent
Ascendant (2021) 720p HDCAM English New Movie x264 AAC By Full4Movies torrent

ETTV Recommended Foreign
Murder Bury Win (2020) 720p HDRip [Hindi-Sub] x264 1XBET torrent
After Porn Ends (2012) [Hindi Dub] 1080p WEBRip MelbetCinema torrent
Village of the Damned - Il villaggio dei dannati (1960) 1080p h264 Ac3 Ita Eng Sub Ita Eng-MIRCrew torrent
Joy (2015) BluRay 1080p.H264 Ita Eng AC3 5.1 Sub Ita Eng - realDMDJ torrent
The.One.and.Only.Ivan.2020.720p.WEB.H264-Dual.YG⭐ torrent
Rurouni.Kenshin.The.Final.2021.1080p.NF.WEB-DL.DDP5.1.x264-EVO[ettv] torrent

ETTV Recommended Music
(2021) Frank Zappa – Zappa ’88: The Last U.S. Show [FLAC] [DarkAngie] torrent
This Is Bee Gees (ETTV)  Playlist Spotify Mp3~320  kbps Beats⭐ torrent
Deborah Cox - Destination Moon (2007) Flac torrent
This Is The Beach Boys (ETTV)  Playlist Spotify Mp3~320  kbps Beats⭐ torrent
Hayley Westenra -  Treasure (Special Edition) 2007) Flac torrent
Kate Nash - Made Of Bricks (2007) Flac torrent


Download Torrent "I Now Pronounce You Chuck and Larry (2007) ITA ENG 1080p x265 HEVC XFM"

IMDB Details
Description:

N/A

Genre:

N/A

Download Torrent (Magnet)
Download Torrent (File)

Seeds: 61
Leechers: 10

Uploaded by:
xfmtorrent


Category:
Movies > HEVC/x265 (Super High Quality, Small size, high CPU usage)


Details
Title:I Now Pronounce You Chuck and Larry (2007) ITA ENG 1080p x265 HEVC XFM
Description:


.::TITOLO::.
Io Vi Dichiaro Marito e... Marito


.:: DATI ::.
Titolo originale I Now Pronounce You Chuck and Larry
Lingua originale inglese
Paese di produzione Stati Uniti d'America
Anno 2007
Durata 110 min
Rapporto 1.85 : 1
Genere commedia, sentimentale
Regia Dennis Dugan
Sceneggiatura Barry Fanaro, Alexander Payne, Jim Taylor
Produttore Adam Sandler, Jack Giarraputo, Tom Shadyac, Michael Bostick
Produttore esecutivo Barry Bernardi, Lew Gallo, Ryan Kavanaugh
Casa di produzione Shady Acres Entertainment, Happy Madison Productions, Relativity Media
Distribuzione in italiano Universal Pictures
Fotografia Dean Semler
Montaggio Jeff Gourson
Musiche Rupert Gregson-Williams
Scenografia Gary Fettis
Costumi Ellen Lutter
Trucco Corrina Duran
Art director Alan Au


.:: TRAMA ::.

Chuck Levine e Larry Valentine sono due vigili del fuoco e amici di lunga data. Chuck è un donnaiolo mentre Larry è un padre single con una bimba "maschiaccio" Tori, ed un figlio chiaramente effeminato di nome Eric. A causa dell'ossessione di Larry per la sua defunta moglie, l'uomo ha finito per non cambiare il beneficiario primario della sua pensione da sua moglie ai suoi figli entro la scadenza. L'unica soluzione per Larry è di risposarsi, ma non conosce nessuna donna in cui riporre tanta fiducia da affidare il futuro dei figli...

.:: SCREENSHOT ::.



.:: AVINAPTIC ::.

Complete name                            : I.Now.Pronunce.You.Chuck.And.Larry.2007.1080p.ITA.ENG.HEVC.x265.XFM.mkv
Format                                   : Matroska
Format version                           : Version 4 / Version 2
File size                                : 8.64 GiB
Duration                                 : 1h 55mn
Overall bit rate                         : 10.7 Mbps
Movie name                               : I Now Pronunce You Chuck And Larry 2007 - XFM
Encoded date                             : UTC 2021-06-10 16:48:01
Writing application                      : mkvmerge v55.0.0 ('Waiting For Space') 64-bit
Writing library                          : libebml v1.4.2 + libmatroska v1.6.4
Cover                                    : Yes
Attachments                              : small_cover.jpg / small_cover_land.jpg / cover.jpg / cover_land.jpg

Video
ID                                       : 1
Format                                   : HEVC
Format/Info                              : High Efficiency Video Coding
Format profile                           : [email protected]@Main
Codec ID                                 : V_MPEGH/ISO/HEVC
Duration                                 : 1h 55mn
Bit rate                                 : 7 974 Kbps
Width                                    : 1 920 pixels
Height                                   : 1 040 pixels
Display aspect ratio                     : 1.85:1
Frame rate mode                          : Constant
Frame rate                               : 23.976 (24000/1001) fps
Color space                              : YUV
Chroma subsampling                       : 4:2:0
Bit depth                                : 8 bits
Bits/(Pixel*Frame)                       : 0.167
Stream size                              : 6.42 GiB (74%)
Title                                    : I Now Pronunce You Chuck And Larry 2007 - XFM
Writing library                          : x265 3.2.1+1-b5c86a64bbbe:[Mac OS X][clang 11.0.3][64 bit] 8bit+10bit+12bit
Encoding settings                        : cpuid=1111039 / frame-threads=3 / wpp / no-pmode / no-pme / no-psnr / no-ssim / log-level=2 / input-csp=1 / input-res=1920x1040 / interlace=0 / total-frames=0 / level-idc=0 / high-tier=1 / uhd-bd=0 / ref=3 / no-allow-non-conformance / no-repeat-headers / annexb / no-aud / no-hrd / info / hash=0 / no-temporal-layers / open-gop / min-keyint=24 / keyint=240 / gop-lookahead=0 / bframes=4 / b-adapt=0 / b-pyramid / bframe-bias=0 / rc-lookahead=15 / lookahead-slices=6 / scenecut=40 / radl=0 / no-splice / no-intra-refresh / ctu=64 / min-cu-size=8 / no-rect / no-amp / max-tu-size=32 / tu-inter-depth=1 / tu-intra-depth=1 / limit-tu=0 / rdoq-level=0 / dynamic-rd=0.00 / no-ssim-rd / signhide / no-tskip / nr-intra=0 / nr-inter=0 / no-constrained-intra / no-strong-intra-smoothing / max-merge=2 / limit-refs=3 / no-limit-modes / me=1 / subme=2 / merange=57 / temporal-mvp / no-hme / weightp / no-weightb / no-analyze-src-pics / deblock=0:0 / no-sao / no-sao-non-deblock / rd=2 / selective-sao=0 / no-early-skip / no-rskip / fast-intra / no-tskip-fast / no-cu-lossless / no-b-intra / no-splitrd-skip / rdpenalty=0 / psy-rd=4.00 / psy-rdoq=0.00 / no-rd-refine / no-lossless / cbqpoffs=0 / crqpoffs=0 / rc=crf / crf=22.0 / qcomp=0.60 / qpstep=1 / stats-write=0 / stats-read=0 / ipratio=1.10 / pbratio=1.00 / aq-mode=1 / aq-strength=1.00 / no-cutree / zone-count=0 / no-strict-cbr / qg-size=32 / rc-grain / qpmax=69 / qpmin=0 / const-vbv / sar=1 / overscan=0 / videoformat=5 / range=0 / colorprim=1 / transfer=1 / colormatrix=1 / chromaloc=0 / display-window=0 / cll=0,0 / min-luma=0 / max-luma=255 / log2-max-poc-lsb=8 / vui-timing-info / vui-hrd-info / slices=1 / no-opt-qp-pps / no-opt-ref-list-length-pps / no-multi-pass-opt-rps / scenecut-bias=0.05 / no-opt-cu-delta-qp / no-aq-motion / no-hdr / no-hdr-opt / no-dhdr10-opt / no-idr-recovery-sei / analysis-reuse-level=5 / scale-factor=0 / refine-intra=0 / refine-inter=0 / refine-mv=1 / refine-ctu-distortion=0 / no-limit-sao / ctu-info=0 / no-lowpass-dct / refine-analysis-type=0 / copy-pic=1 / max-ausize-factor=1.0 / no-dynamic-refine / no-single-sei / no-hevc-aq / no-svt / no-field / qp-adaptation-range=1.00
Default                                  : Yes
Forced                                   : No
Color range                              : Limited
Color primaries                          : BT.709
Transfer characteristics                 : BT.709
Matrix coefficients                      : BT.709

Audio #1
ID                                       : 2
Format                                   : AAC
Format/Info                              : Advanced Audio Codec
Format profile                           : LC
Codec ID                                 : A_AAC
Duration                                 : 1h 55mn
Bit rate                                 : 128 Kbps
Channel(s)                               : 2 channels
Channel positions                        : Front: L R
Sampling rate                            : 48.0 KHz
Frame rate                               : 46.875 fps (1024 spf)
Compression mode                         : Lossy
Delay relative to video                  : 16ms
Stream size                              : 106 MiB (1%)
Title                                    : Ita by XFM
Language                                 : Italian
Default                                  : Yes
Forced                                   : No

Audio #2
ID                                       : 3
Format                                   : AC-3
Format/Info                              : Audio Coding 3
Mode extension                           : CM (complete main)
Format settings, Endianness              : Big
Codec ID                                 : A_AC3
Duration                                 : 1h 55mn
Bit rate mode                            : Constant
Bit rate                                 : 256 Kbps
Channel(s)                               : 2 channels
Channel positions                        : Front: L R
Sampling rate                            : 48.0 KHz
Frame rate                               : 31.250 fps (1536 spf)
Compression mode                         : Lossy
Stream size                              : 211 MiB (2%)
Title                                    : Eng by XFM
Language                                 : English
Default                                  : No
Forced                                   : No

Audio #3
ID                                       : 4
Format                                   : DTS
Format/Info                              : Digital Theater Systems
Format profile                           : MA / Core
Mode                                     : 16
Format settings, Endianness              : Big
Codec ID                                 : A_DTS
Duration                                 : 1h 55mn
Bit rate mode                            : Variable / Constant
Bit rate                                 : 1 582 Kbps / 768 Kbps
Channel(s)                               : 6 channels
Channel positions                        : Front: L C R, Side: L R, LFE
Sampling rate                            : 48.0 KHz
Frame rate                               : 93.750 fps (512 spf)
Bit depth                                : 16 bits
Compression mode                         : Lossless / Lossy
Stream size                              : 1.27 GiB (15%)
Title                                    : Eng DTS-HD by XFM
Language                                 : English
Default                                  : No
Forced                                   : No

Audio #4
ID                                       : 5
Format                                   : DTS
Format/Info                              : Digital Theater Systems
Mode                                     : 16
Format settings, Endianness              : Big
Codec ID                                 : A_DTS
Duration                                 : 1h 55mn
Bit rate mode                            : Constant
Bit rate                                 : 768 Kbps
Channel(s)                               : 6 channels
Channel positions                        : Front: L C R, Side: L R, LFE
Sampling rate                            : 48.0 KHz
Frame rate                               : 93.750 fps (512 spf)
Bit depth                                : 16 bits
Compression mode                         : Lossy
Stream size                              : 633 MiB (7%)
Title                                    : Eng DTS by XFM
Language                                 : English
Default                                  : No
Forced                                   : No

Text #1
ID                                       : 6
Format                                   : PGS
Muxing mode                              : zlib
Codec ID                                 : S_HDMV/PGS
Codec ID/Info                            : Picture based subtitle format used on BDs/HD-DVDs
Duration                                 : 1h 46mn
Bit rate                                 : 32.1 Kbps
Count of elements                        : 4102
Stream size                              : 24.4 MiB (0%)
Title                                    : English-PGS
Language                                 : English
Default                                  : No
Forced                                   : No

Text #2
ID                                       : 7
Format                                   : PGS
Muxing mode                              : zlib
Codec ID                                 : S_HDMV/PGS
Codec ID/Info                            : Picture based subtitle format used on BDs/HD-DVDs
Duration                                 : 1h 49mn
Bit rate                                 : 37.9 Kbps
Count of elements                        : 4898
Stream size                              : 29.6 MiB (0%)
Title                                    : English-SDH-PGS
Language                                 : English
Default                                  : No
Forced                                   : No

Text #3
ID                                       : 8
Format                                   : PGS
Muxing mode                              : zlib
Codec ID                                 : S_HDMV/PGS
Codec ID/Info                            : Picture based subtitle format used on BDs/HD-DVDs
Duration                                 : 1h 49mn
Bit rate                                 : 29.5 Kbps
Count of elements                        : 3230
Stream size                              : 23.0 MiB (0%)
Title                                    : English-COMMENTARY-PGS
Language                                 : English
Default                                  : No
Forced                                   : No

Menu
00:00:00.000                             : :Chapter 1
00:01:50.193                             : :Chapter 2
00:14:22.195                             : :Chapter 3
00:21:52.895                             : :Chapter 4
00:31:22.381                             : :Chapter 5
00:42:52.904                             : :Chapter 6
00:49:32.636                             : :Chapter 7
00:58:51.820                             : :Chapter 8
01:11:27.492                             : :Chapter 9
01:26:24.971                             : :Chapter 10
01:42:14.003                             : :Chapter 11

.:: STATS TORRENT ::.


Category:Movies > HEVC/x265
Lang:Italian  Italian
Total Size:8.64 GB
Info Hash:f2dda73b960c4884f09c137d69fcd58eee019284
Added By:xfmtorrent
Date Added:10-06-2021 22:09:46

Files

File List: 
 File Size
I.Now.Pronunce.You.Chuck.And.Larry.2007.1080p.ITA.ENG.HEVC.x265.XFM.mkv8.64 GB



Comments

There are currently no comments. Be the first one to write something !