loki Hindi  jagame thandhiram f9 ettv malayalam War of the Worlds Dave S02E03 Below Deck Sailing Yacht s02e17 hindi 2021 wwe Loki S01E02 the conjuring the devil made me do it 2021 sherni A Quiet Place  the blacklist A Quiet Place Part II 2020 ray A Quiet place 2 fast and furious 9 F9 2021 etmovies Rick and Morty S05E01 the flash Loki S01E01 Below Deck Sailing Yacht s02e18 fear the walking dead A Quiet Place Part II  loki A Quiet Place Part II 2021 Legacies s03e16 etrg Nobody 2021 infinite 2021 loki s01e03 2160p rick and morty the misfits 2021 blacklist Superman and Lois tamil Luca 2021 luca KEVIN CAN FK HIMSELF s01e01 0 grahan The Hitmans Wifes Bodyguard 2021 yts Grahan 2021  lucifer ddr cruella 2021 Wrath of Man 2021 marvel week KEVIN CAN FK HIMSELF s01e02 evo Kung Fu The Blacklist s08e22 a quiet place part 2 xxx hindi ITA The Flash S07E14 Kung Fu S01E09 fast and furious ethd Hitmans Wifes Bodyguard 2021 Mr Inbetween S03E06 windows 11 dc week Superman and Lois S01E11 sunflower 
Warning! Use a VPN When Downloading Torrents!
Your IP Address is . Location
Your Internet Provider can see when you download torrents! Hide your IP Address with a VPN
ETTV warns: You should use VPN to hide your torrenting. HIDE ME NOW
ETTV Recommended TV Shows
Crime.Scene.Kitchen.S01E05.720p.WEB.h264-BAE[ettv] torrent
Kung.Fu.2021.S01E09.XviD-AFG[ettv] torrent
The.Blacklist.S08E22.XviD-AFG[ettv] torrent
Bosch.S07E06.720p.WEB.H264-GLHF[ettv] torrent
Epsteins.Shadow.Ghislaine.Maxwell.S01E03.1080p.WEB.h264-KOGi[ettv] torrent
Walker.S01E15.720p.HDTV.x264-SYNCOPY[ettv] torrent

ETTV Recommended SD
Demon.Slayer.Mugen.Train.2021.HDRip.XviD.AC3-EVO torrent
Behemoth.2021.HDRip.XviD.AC3-EVO torrent
Calm.Like.a.Bomb.2021.HDRip.XviD.AC3-EVO torrent
Finding.Ophelia.2021.HDRip.XviD.AC3-EVO torrent

ETTV Recommended HD
Kindergarten Cop (1990) [A Schwarzeneger] 1080p H264 DolbyD 5.1 ⛦ ©️nickarad torrent
In The Line of Fire (1993) 1080p BluRay 6CH 2.5GB - ItsMyRip torrent
The.Big.Short.2015.BluRay.1080p.DTS-HD.MA.7.1.AVC.REMUX-FraMeSToR torrent
I.Care.a.Lot.2021.1080p.Bluray.DTS-HD.MA.5.1.X264-EVO[ettv] torrent

ETTV Recommended UHD
Aliens.1986.Special.Edition.BluRay.1080p.DTS-HD.MA.5.1.AVC.REMUX-FraMeSToR.mkv torrent
Children.of.Men.2006.BluRay.1080p.DTS-HD.MA.5.1.AVC.REMUX-FraMeSToR torrent
Chronicle.Directors.Cut.2012.BluRay.1080p.DTS-HD.MA.5.1.AVC.REMUX-FraMeSToR torrent
Citizen.Kane.1941.BluRay.1080p.DTS-HD.MA.1.0.AVC.REMUX-FraMeSToR torrent
La La Land.2016.4K.HDR.2160p.BDRip Ita Eng x265-NAHOM torrent
Dawn.of.the.Dead.2004.Unrated.Director\'s.Cut.REPACK.BluRay.1080p.DTS-HD.MA.5.1.AVC.REMUX-FraMeSToR torrent

ETTV Recommended Cam
Fast.And.Furious.9.2021. CAM NEW SOURCE CLEAN SomeCoontS torrent
A.Quiet.Place.Part.II.2021.TC720p.Clean.Cam.H264.AC3.WARRIORS torrent
The Hitmans Wifes Bodyguard (2021) 720p English HDCAM-Rip x264 AAC By Full4Movies torrent
Ascendant (2021) 720p HDCAM English New Movie x264 AAC By Full4Movies torrent

ETTV Recommended Foreign
Hidden.Away.[Volevo.Nascondermi].2020.BluRay.1080p.x264.AC3.HORiZON-ArtSubs torrent
The Great Mouse Detective 1986 x264 1080p Esub English Hindi THE GOPI SAHI torrent
Color Rush 2021 720p Korean WEB-DL H264 BONE torrent
Letters.To.Juliet.2010.iTA.ENG.AC3.SUB.iTA.ENG.BluRay.HEVC.1080p.x265.jeddak-MIRCrew torrent
La Condesa (2020) 720p HDRip [Hindi-Sub] x264 1XBET torrent
Hotel Salvation (2016) AKA Mukti Bhawan - BFI + Extras (1080p BluRay x265 HEVC 10bit EAC3 5.1 Hindi Bandi) [QxR] torrent

ETTV Recommended Music
50s Love Songs (ETTV)  Playlist Spotify Mp3 ~320  kbps Beats⭐ torrent
[indie-folk, indie-rock] (2021) Phosphorescent - The BBC Sessions EP [FLAC] [DarkAngie] torrent
Weezer - Van Weezer (2021) (PBTHAL LP 24-96) [FLAC] vtwin88cube torrent
[acoustic, live, rock] (Re-Up) (2021) Joe Jackson, Todd Rundgren featuring Ethel - State Theater New Jersey 2005 [FLAC] [DarkAngie] torrent
[chamber pop, indie-pop] (2021) Hypnotic Brass Ensemble – This is a Mindfulness Drill: A Reimagining of Richard Youngs’ ‘Sapphie’ [FLAC] [DarkAngie] torrent
[indie-pop] (2021) Quivers - Golden Doubt [FLAC] [DarkAngie] torrent


Download Torrent "Gullivers Travels (2010) ITA ENG 1080p H264 XFM"

IMDB Details
Description:

N/A

Genre:

N/A

Download Torrent (Magnet)
Download Torrent (File)

Seeds: 51
Leechers: 7

Uploaded by:
xfmtorrent


Category:
Movies > HD 1080p (Great for large screens)


Details
Title:Gullivers Travels (2010) ITA ENG 1080p H264 XFM
Description:


.::TITOLO::.
I Fantastici Viaggi Di Gulliver


.:: DATI ::.
Titolo originale Gulliver's Travels
Lingua originale inglese
Paese di produzione Stati Uniti d'America
Anno 2010
Durata 93 min
Rapporto 2,35 : 1
Genere avventura, commedia, fantastico
Regia Rob Letterman
Soggetto dal romanzo di Jonathan Swift
Sceneggiatura Joe Stillman, Nicholas Stoller
Produttore Jack Black, Ben Cooley, John Davis, Gregory Goodman
Casa di produzione 20th Century Fox, Davis Entertainment, Electric Dynamite
Distribuzione in italiano 20th Century Fox Italia
Fotografia David Tattersall
Montaggio Alan Edward Bell, Maryann Brandon, Nicolas De Toth
Musiche Henry Jackman
Scenografia Gavin Bocquet
Costumi Sammy Sheldon
Trucco Julie Dartnell, Sarah Downes, Nana Fischer, Paul Gooch, Camilla Kirk-Reynolds, Laura Lilley, Sophie Slotover, Nadia Stacey


.:: TRAMA ::.

Lemuel Gulliver è un uomo che lavora in un ufficio posta di New York e sul posto di lavoro è solito giocare a Guitar Hero. Gulliver è innamorato di Darcy Silverman, capo dell'ufficio viaggi, ma un giorno arriva Dan, assistente appena ventenne, che dopo solo un giorno ottiene la promozione come capo e dice a Gulliver che non potrà mai arrivare tra i grandi. Gulliver, affranto, si decide ad andare da Darcy e chiederle di uscire: non ci riesce e come scusa prende dei fogli a caso, che sono la domanda di iscrizione all'ufficio viaggi, così Gulliver mente a Darcy dicendole che è un grande viaggiatore e in più scrive sempre dei suoi viaggi, come prova le porta un articolo (che in realtà è copiato da vari siti e guide turistiche). Darcy lo manda a fare un articolo al Triangolo delle Bermude. Mentre sta navigando, Gulliver si trova in mezzo a una tempesta e viene risucchiato da un vortice, al risveglio si ritrova nella terra di Lilliput, governata da Re Teodoro e popolata da minuscoli esseri umani...

.:: SCREENSHOT ::.



.:: AVINAPTIC ::.

Complete name                            : Gullivers.Travels.2010.ITA.ENG.1080p.H264.XFM.mkv
Format                                   : Matroska
Format version                           : Version 4 / Version 2
File size                                : 9.04 GiB
Duration                                 : 1h 24mn
Overall bit rate                         : 15.3 Mbps
Movie name                               : Gulliver's Travels ITA ENG - 1080p - XFM
Encoded date                             : UTC 2021-06-09 22:56:13
Writing application                      : mkvmerge v55.0.0 ('Waiting For Space') 64-bit
Writing library                          : libebml v1.4.2 + libmatroska v1.6.4
Cover                                    : Yes
Attachments                              : cover_land.jpg / small_cover.jpg / small_cover_land.jpg / cover.jpg

Video
ID                                       : 1
Format                                   : AVC
Format/Info                              : Advanced Video Codec
Format profile                           : [email protected]
Format settings, CABAC                   : Yes
Format settings, ReFrames                : 4 frames
Codec ID                                 : V_MPEG4/ISO/AVC
Duration                                 : 1h 24mn
Bit rate                                 : 13.2 Mbps
Width                                    : 1 920 pixels
Height                                   : 816 pixels
Display aspect ratio                     : 2.35:1
Frame rate mode                          : Constant
Frame rate                               : 23.976 fps
Color space                              : YUV
Chroma subsampling                       : 4:2:0
Bit depth                                : 8 bits
Scan type                                : Progressive
Bits/(Pixel*Frame)                       : 0.353
Stream size                              : 7.84 GiB (87%)
Title                                    : Gulliver's Travels ITA ENG - 1080p - XFM
Writing library                          : x264 core 142 r2479 dd79a61
Encoding settings                        : cabac=1 / ref=5 / deblock=1:-3:-3 / analyse=0x3:0x133 / me=umh / subme=10 / psy=1 / psy_rd=1.00:0.25 / mixed_ref=1 / me_range=48 / chroma_me=1 / trellis=2 / 8x8dct=1 / cqm=0 / deadzone=21,11 / fast_pskip=1 / chroma_qp_offset=-4 / threads=6 / lookahead_threads=1 / sliced_threads=0 / nr=400 / decimate=1 / interlaced=0 / bluray_compat=0 / constrained_intra=0 / bframes=9 / b_pyramid=1 / b_adapt=2 / b_bias=0 / direct=2 / weightb=1 / open_gop=0 / weightp=2 / keyint=240 / keyint_min=24 / scenecut=40 / intra_refresh=0 / rc_lookahead=60 / rc=2pass / mbtree=1 / bitrate=13250 / ratetol=1.0 / qcomp=0.60 / qpmin=0 / qpmax=69 / qpstep=4 / cplxblur=20.0 / qblur=0.5 / vbv_maxrate=62500 / vbv_bufsize=78125 / nal_hrd=none / filler=0 / ip_ratio=1.40 / aq=1:0.30
Language                                 : English
Default                                  : Yes
Forced                                   : No
Color range                              : Limited
Color primaries                          : BT.709
Transfer characteristics                 : BT.709
Matrix coefficients                      : BT.709

Audio #1
ID                                       : 2
Format                                   : AAC
Format/Info                              : Advanced Audio Codec
Format profile                           : LC
Codec ID                                 : A_AAC
Duration                                 : 1h 24mn
Bit rate                                 : 458 Kbps
Channel(s)                               : 2 channels
Channel positions                        : Front: L R
Sampling rate                            : 48.0 KHz
Frame rate                               : 46.875 fps (1024 spf)
Compression mode                         : Lossy
Delay relative to video                  : 167ms
Stream size                              : 278 MiB (3%)
Title                                    : Ita by XFM
Language                                 : Italian
Default                                  : Yes
Forced                                   : No

Audio #2
ID                                       : 3
Format                                   : DTS
Format/Info                              : Digital Theater Systems
Mode                                     : 16
Format settings, Endianness              : Big
Codec ID                                 : A_DTS
Duration                                 : 1h 24mn
Bit rate mode                            : Constant
Bit rate                                 : 1 509 Kbps
Channel(s)                               : 6 channels
Channel positions                        : Front: L C R, Side: L R, LFE
Sampling rate                            : 48.0 KHz
Frame rate                               : 93.750 fps (512 spf)
Bit depth                                : 24 bits
Compression mode                         : Lossy
Delay relative to video                  : -83ms
Stream size                              : 914 MiB (10%)
Title                                    : Eng DTS by XFM
Language                                 : English
Default                                  : No
Forced                                   : No

Text #1
ID                                       : 4
Format                                   : UTF-8
Codec ID                                 : S_TEXT/UTF8
Codec ID/Info                            : UTF-8 Plain Text
Duration                                 : 1h 23mn
Bit rate                                 : 65 bps
Count of elements                        : 1295
Stream size                              : 40.0 KiB (0%)
Title                                    : Ita
Language                                 : Italian
Default                                  : Yes
Forced                                   : No

Text #2
ID                                       : 5
Format                                   : PGS
Muxing mode                              : zlib
Codec ID                                 : S_HDMV/PGS
Codec ID/Info                            : Picture based subtitle format used on BDs/HD-DVDs
Duration                                 : 1h 22mn
Bit rate                                 : 41.4 Kbps
Count of elements                        : 2992
Stream size                              : 24.5 MiB (0%)
Title                                    : Eng by XFM
Language                                 : English
Default                                  : No
Forced                                   : No

Text #3
ID                                       : 6
Format                                   : PGS
Muxing mode                              : zlib
Codec ID                                 : S_HDMV/PGS
Codec ID/Info                            : Picture based subtitle format used on BDs/HD-DVDs
Duration                                 : 1h 23mn
Bit rate                                 : 36.4 Kbps
Count of elements                        : 2604
Stream size                              : 21.8 MiB (0%)
Title                                    : Esp by XFM
Language                                 : Spanish
Default                                  : No
Forced                                   : No

Text #4
ID                                       : 7
Format                                   : PGS
Muxing mode                              : zlib
Codec ID                                 : S_HDMV/PGS
Codec ID/Info                            : Picture based subtitle format used on BDs/HD-DVDs
Duration                                 : 1h 22mn
Bit rate                                 : 34.4 Kbps
Count of elements                        : 2488
Stream size                              : 20.3 MiB (0%)
Title                                    : Fr by XFM
Language                                 : French
Default                                  : No
Forced                                   : No

Text #5
ID                                       : 8
Format                                   : PGS
Muxing mode                              : zlib
Codec ID                                 : S_HDMV/PGS
Codec ID/Info                            : Picture based subtitle format used on BDs/HD-DVDs
Duration                                 : 1h 23mn
Bit rate                                 : 34.2 Kbps
Count of elements                        : 2322
Stream size                              : 20.4 MiB (0%)
Title                                    : Pt by XFM
Language                                 : Portuguese
Default                                  : No
Forced                                   : No

Menu
00:00:00.000                             : :Chapter 1
00:03:05.952                             : :Chapter 2
00:06:35.495                             : :Chapter 3
00:10:05.872                             : :Chapter 4
00:12:32.852                             : :Chapter 5
00:14:30.803                             : :Chapter 6
00:16:28.921                             : :Chapter 7
00:20:13.312                             : :Chapter 8
00:23:03.649                             : :Chapter 9
00:26:02.161                             : :Chapter 10
00:29:24.863                             : :Chapter 11
00:34:32.671                             : :Chapter 12
00:38:49.594                             : :Chapter 13
00:42:48.666                             : :Chapter 14
00:48:50.027                             : :Chapter 15
00:52:30.414                             : :Chapter 16
00:55:11.909                             : :Chapter 17
01:00:36.900                             : :Chapter 18
01:05:51.047                             : :Chapter 19
01:08:17.026                             : :Chapter 20
01:11:00.022                             : :Chapter 21
01:14:45.247                             : :Chapter 22
01:16:27.516                             : :Chapter 23
01:20:10.406                             : :Chapter 24


.:: STATS TORRENT ::.



Category:Movies > HD 1080p
Lang:Italian  Italian
Total Size:9.04 GB
Info Hash:a9111e53a2347756cef606467990bffa693b24fa
Added By:xfmtorrent
Date Added:10-06-2021 09:37:40

Files

File List: 
 File Size
Gullivers.Travels.2010.ITA.ENG.1080p.H264.XFM.mkv9.04 GB



Comments

There are currently no comments. Be the first one to write something !