loki Hindi  jagame thandhiram f9 ettv malayalam War of the Worlds Dave S02E03 Below Deck Sailing Yacht s02e17 hindi 2021 wwe Loki S01E02 the conjuring the devil made me do it 2021 sherni A Quiet Place  the blacklist A Quiet Place Part II 2020 ray A Quiet place 2 fast and furious 9 F9 2021 etmovies Rick and Morty S05E01 the flash Loki S01E01 Below Deck Sailing Yacht s02e18 fear the walking dead A Quiet Place Part II  loki A Quiet Place Part II 2021 Legacies s03e16 etrg Nobody 2021 infinite 2021 loki s01e03 2160p rick and morty the misfits 2021 blacklist Superman and Lois tamil Luca 2021 luca KEVIN CAN FK HIMSELF s01e01 0 grahan The Hitmans Wifes Bodyguard 2021 yts Grahan 2021  lucifer ddr cruella 2021 Wrath of Man 2021 marvel week KEVIN CAN FK HIMSELF s01e02 evo Kung Fu The Blacklist s08e22 a quiet place part 2 xxx hindi ITA The Flash S07E14 Kung Fu S01E09 fast and furious ethd Hitmans Wifes Bodyguard 2021 Mr Inbetween S03E06 windows 11 dc week Superman and Lois S01E11 sunflower 
Warning! Use a VPN When Downloading Torrents!
Your IP Address is . Location
Your Internet Provider can see when you download torrents! Hide your IP Address with a VPN
ETTV warns: You should use VPN to hide your torrenting. HIDE ME NOW
ETTV Recommended TV Shows
Crime.Scene.Kitchen.S01E05.720p.WEB.h264-BAE[ettv] torrent
Kung.Fu.2021.S01E09.XviD-AFG[ettv] torrent
The.Blacklist.S08E22.XviD-AFG[ettv] torrent
Bosch.S07E06.720p.WEB.H264-GLHF[ettv] torrent
Epsteins.Shadow.Ghislaine.Maxwell.S01E03.1080p.WEB.h264-KOGi[ettv] torrent
Walker.S01E15.720p.HDTV.x264-SYNCOPY[ettv] torrent

ETTV Recommended SD
Demon.Slayer.Mugen.Train.2021.HDRip.XviD.AC3-EVO torrent
Behemoth.2021.HDRip.XviD.AC3-EVO torrent
Calm.Like.a.Bomb.2021.HDRip.XviD.AC3-EVO torrent
Finding.Ophelia.2021.HDRip.XviD.AC3-EVO torrent

ETTV Recommended HD
Kindergarten Cop (1990) [A Schwarzeneger] 1080p H264 DolbyD 5.1 ⛦ ©️nickarad torrent
In The Line of Fire (1993) 1080p BluRay 6CH 2.5GB - ItsMyRip torrent
The.Big.Short.2015.BluRay.1080p.DTS-HD.MA.7.1.AVC.REMUX-FraMeSToR torrent
I.Care.a.Lot.2021.1080p.Bluray.DTS-HD.MA.5.1.X264-EVO[ettv] torrent

ETTV Recommended UHD
Aliens.1986.Special.Edition.BluRay.1080p.DTS-HD.MA.5.1.AVC.REMUX-FraMeSToR.mkv torrent
Children.of.Men.2006.BluRay.1080p.DTS-HD.MA.5.1.AVC.REMUX-FraMeSToR torrent
Chronicle.Directors.Cut.2012.BluRay.1080p.DTS-HD.MA.5.1.AVC.REMUX-FraMeSToR torrent
Citizen.Kane.1941.BluRay.1080p.DTS-HD.MA.1.0.AVC.REMUX-FraMeSToR torrent
La La Land.2016.4K.HDR.2160p.BDRip Ita Eng x265-NAHOM torrent
Dawn.of.the.Dead.2004.Unrated.Director\'s.Cut.REPACK.BluRay.1080p.DTS-HD.MA.5.1.AVC.REMUX-FraMeSToR torrent

ETTV Recommended Cam
Fast.And.Furious.9.2021. CAM NEW SOURCE CLEAN SomeCoontS torrent
A.Quiet.Place.Part.II.2021.TC720p.Clean.Cam.H264.AC3.WARRIORS torrent
The Hitmans Wifes Bodyguard (2021) 720p English HDCAM-Rip x264 AAC By Full4Movies torrent
Ascendant (2021) 720p HDCAM English New Movie x264 AAC By Full4Movies torrent

ETTV Recommended Foreign
Hidden.Away.[Volevo.Nascondermi].2020.BluRay.1080p.x264.AC3.HORiZON-ArtSubs torrent
The Great Mouse Detective 1986 x264 1080p Esub English Hindi THE GOPI SAHI torrent
Color Rush 2021 720p Korean WEB-DL H264 BONE torrent
Letters.To.Juliet.2010.iTA.ENG.AC3.SUB.iTA.ENG.BluRay.HEVC.1080p.x265.jeddak-MIRCrew torrent
La Condesa (2020) 720p HDRip [Hindi-Sub] x264 1XBET torrent
Hotel Salvation (2016) AKA Mukti Bhawan - BFI + Extras (1080p BluRay x265 HEVC 10bit EAC3 5.1 Hindi Bandi) [QxR] torrent

ETTV Recommended Music
50s Love Songs (ETTV)  Playlist Spotify Mp3 ~320  kbps Beats⭐ torrent
[indie-folk, indie-rock] (2021) Phosphorescent - The BBC Sessions EP [FLAC] [DarkAngie] torrent
Weezer - Van Weezer (2021) (PBTHAL LP 24-96) [FLAC] vtwin88cube torrent
[acoustic, live, rock] (Re-Up) (2021) Joe Jackson, Todd Rundgren featuring Ethel - State Theater New Jersey 2005 [FLAC] [DarkAngie] torrent
[chamber pop, indie-pop] (2021) Hypnotic Brass Ensemble – This is a Mindfulness Drill: A Reimagining of Richard Youngs’ ‘Sapphie’ [FLAC] [DarkAngie] torrent
[indie-pop] (2021) Quivers - Golden Doubt [FLAC] [DarkAngie] torrent


Download Torrent "Blind (2014) [Hindi Dub] 720p WEB-DLRip MelbetCinema"

IMDB Details
Description:

Forsaken in a new Oslo apartment, a frail blind woman battles to come to terms with her condition, as she slowly retracts into an elaborate fantasy bubble. Are her stories fanning her suspicions, or is this what total blindness looks like?

Genre:

Drama

Download Torrent (Magnet)
Download Torrent (File)

Seeds: 27
Leechers: 9

Uploaded by:
MelbetCinema7


Category:
Movies > HD 720p (Great for large screens)


Details
Title:Blind (2014) [Hindi Dub] 720p WEB-DLRip MelbetCinema
Description:


https://www.imdb.com/title/tt2616810/






Video
ID                                       : 1
Format                                   : AVC
Format/Info                              : Advanced Video Codec
Format profile                           : [email protected]
Format settings                          : CABAC / 4 Ref Frames
Format settings, CABAC                   : Yes
Format settings, Reference frames        : 4 frames
Codec ID                                 : V_MPEG4/ISO/AVC
Duration                                 : 1 h 37 min
Bit rate                                 : 2 295 kb/s
Width                                    : 1 280 pixels
Height                                   : 694 pixels
Display aspect ratio                     : 1.85:1
Frame rate mode                          : Constant
Frame rate                               : 23.976 (24000/1001) FPS
Color space                              : YUV
Chroma subsampling                       : 4:2:0
Bit depth                                : 8 bits
Scan type                                : Progressive
Bits/(Pixel*Frame)                       : 0.108
Stream size                              : 1.56 GiB (92%)
Default                                  : Yes
Forced                                   : No
Color range                              : Limited
Color primaries                          : BT.709
Transfer characteristics                 : BT.709
Matrix coefficients                      : BT.709

Audio
ID                                       : 2
Format                                   : AAC LC
Format/Info                              : Advanced Audio Codec Low Complexity
Codec ID                                 : A_AAC-2
Duration                                 : 1 h 37 min
Bit rate                                 : 192 kb/s
Channel(s)                               : 2 channels
Channel layout                           : L R
Sampling rate                            : 48.0 kHz
Frame rate                               : 46.875 FPS (1024 SPF)
Compression mode                         : Lossy
Stream size                              : 132 MiB (8%)
Title                                    : [Hindi Dub] MelbetCinema
Language                                 : Hindi
Default                                  : Yes
Forced                                   : No
Category:Movies > HD 720p
Lang:Hindi  Hindi
Total Size:1.69 GB
Info Hash:acb14ce5c1a93dca23f121c5358b70e1848c6d4e
Added By:MelbetCinema7
Date Added:09-06-2021 20:00:11

Files

File List: 
 File Size
Blind (2014) [Hindi Dub] 720p WEB-DLRip MelbetCinema.mkv1.69 GB



Comments

There are currently no comments. Be the first one to write something !