A Quiet Place Part II etrg Loki 2021 ddr Luca 2021 ethd superman and lois sherni yts MasterChef Australia S13E48 Loki.S01E03 luca dc week Loki S01E03 A Quiet Place Part II 2020 Below Deck Sailing Yacht s02e17 Infinite 2021 Below Deck Sailing Yacht s02e18 f9 2160p  fast and furious 9 ita rick and morty loki Hindi  f9 2021 0 The Hitmans Wifes Bodyguard 2021 xxx A quiet place Hitmans Wifes Bodyguard 2021 Jagame thandhiram The Conjuring The Devil Made Me Do It 2021 The Flash s07e14 Motherland Fort Salem s02e01 fast  bigil tamil Wwe  Superman  A Quiet place 2 hindi 2021 The Misfits 2021 A Quiet Place Part II 2021 Cruella 2021 WINDOWS 11 superman and lois s01e11 KEVIN CAN FK HIMSELF s01e02 The Blacklist s08e22 FLASH Loki s01e02 ettv tamil fast and furious the blacklist Wrath of Man 2021 marvel week lucifer  Nobody 2021 etmovies loki episode 3 the flash rick and morty s05e01 ullu fear the walking dead  Loki s01e01 The Secret of Skinwalker Ranch S02E07 loki hindi a quiet place part 2 Mr Inbetween S03E06 KEVIN CAN FK HIMSELF S01E01 malayalam  evo 
Warning! Use a VPN When Downloading Torrents!
Your IP Address is . Location
Your Internet Provider can see when you download torrents! Hide your IP Address with a VPN
ETTV warns: You should use VPN to hide your torrenting. HIDE ME NOW
ETTV Recommended TV Shows
Superman.and.Lois.S01E11.720p.HDTV.x264-SYNCOPY[ettv] torrent
Loki.S01E03.Lamentis.1080p.DSNP.WEB-DL.DDP5.1.H.264-EVO[ettv] torrent
The.Flash.S07E14.480p.x264-ZMNT[ettv] torrent
Rick.and.Morty.S05E01.720p.WEB.h264-KOGi[ettv] torrent
NCIS.New.Orleans.S01E06.MULTi.1080p.WEB.H264-FREAMON[ettv] torrent
MasterChef.Australia.S13E48.HDTV.x264-FQM[ettv] torrent

ETTV Recommended SD
The Green Sea.2021.HDRip.XviD.AC3-EVO torrent
Real.Talk.2021.HDRip.XviD.AC3-EVO torrent
Good.on.Paper.2021.HDRip.XviD.AC3-EVO torrent
Demon.Slayer.Mugen.Train.2021.HDRip.XviD.AC3-EVO torrent

ETTV Recommended HD
The Rising Hawk (2019)[BDRemux 1080p x 264 by alE13 AC3/DTS][Audio Eng\PL & Sub Eng][Eng] torrent
Guilty as Sin (1993) [1080p]  [WebRip] [YTS] torrent
Kindergarten Cop (1990) [A Schwarzeneger] 1080p H264 DolbyD 5.1 ⛦ ©️nickarad torrent
In The Line of Fire (1993) 1080p BluRay 6CH 2.5GB - ItsMyRip torrent

ETTV Recommended UHD
Aliens.1986.Special.Edition.BluRay.1080p.DTS-HD.MA.5.1.AVC.REMUX-FraMeSToR.mkv torrent
Children.of.Men.2006.BluRay.1080p.DTS-HD.MA.5.1.AVC.REMUX-FraMeSToR torrent
Chronicle.Directors.Cut.2012.BluRay.1080p.DTS-HD.MA.5.1.AVC.REMUX-FraMeSToR torrent
Citizen.Kane.1941.BluRay.1080p.DTS-HD.MA.1.0.AVC.REMUX-FraMeSToR torrent
La La Land.2016.4K.HDR.2160p.BDRip Ita Eng x265-NAHOM torrent
Dawn.of.the.Dead.2004.Unrated.Director\'s.Cut.REPACK.BluRay.1080p.DTS-HD.MA.5.1.AVC.REMUX-FraMeSToR torrent

ETTV Recommended Cam
Fast.And.Furious.9.2021. CAM NEW SOURCE CLEAN SomeCoontS torrent
A.Quiet.Place.Part.II.2021.TC720p.Clean.Cam.H264.AC3.WARRIORS torrent
The Hitmans Wifes Bodyguard (2021) 720p English HDCAM-Rip x264 AAC By Full4Movies torrent
Ascendant (2021) 720p HDCAM English New Movie x264 AAC By Full4Movies torrent

ETTV Recommended Foreign
Les.Miserables.2012.iTA.ENG.AC3.SUB.iTA.ENG.BluRay.HEVC.1080p.x265.jeddak-MIRCrew torrent
Hidden.Away.[Volevo.Nascondermi].2020.BluRay.1080p.x264.AC3.HORiZON-ArtSubs torrent
The Great Mouse Detective 1986 x264 1080p Esub English Hindi THE GOPI SAHI torrent
Color Rush 2021 720p Korean WEB-DL H264 BONE torrent
Letters.To.Juliet.2010.iTA.ENG.AC3.SUB.iTA.ENG.BluRay.HEVC.1080p.x265.jeddak-MIRCrew torrent
La Condesa (2020) 720p HDRip [Hindi-Sub] x264 1XBET torrent

ETTV Recommended Music
This Is Blue Öyster Cult (ETTV)  Playlist Spotify Mp3 ~320  kbps Beats⭐ torrent
Teresa Salgueiro - Silence, Night & Dreams (2007) Flac torrent
50s Love Songs (ETTV)  Playlist Spotify Mp3 ~320  kbps Beats⭐ torrent
[indie-folk, indie-rock] (2021) Phosphorescent - The BBC Sessions EP [FLAC] [DarkAngie] torrent
Weezer - Van Weezer (2021) (PBTHAL LP 24-96) [FLAC] vtwin88cube torrent
[acoustic, live, rock] (Re-Up) (2021) Joe Jackson, Todd Rundgren featuring Ethel - State Theater New Jersey 2005 [FLAC] [DarkAngie] torrent


Download Torrent "Justice Society World War II (2021) [Hindi Dub] 1080p WEBRip MelbetCinema"

IMDB Details
Description:

The Justice Society of America , a group of heroes aiding the allies in World War 2, acquire an ally from the future who sends them on an adventure that changes history.

Genre:

Animation, Action, Adventure, Fantasy, Sci-Fi

Download Torrent (Magnet)
Download Torrent (File)

Seeds: 11
Leechers: 8

Uploaded by:
MelbetCinema7


Category:
Anime > Movies


Details
Title:Justice Society World War II (2021) [Hindi Dub] 1080p WEBRip MelbetCinema
Description:


https://www.imdb.com/title/tt13804084

https://youtu.be/s4xXbGFhEFg






Video
ID                                       : 1
Format                                   : AVC
Format/Info                              : Advanced Video Codec
Format profile                           : [email protected]
Format settings                          : CABAC / 4 Ref Frames
Format settings, CABAC                   : Yes
Format settings, Reference frames        : 4 frames
Codec ID                                 : V_MPEG4/ISO/AVC
Duration                                 : 1 h 25 min
Bit rate                                 : 3 984 kb/s
Width                                    : 1 920 pixels
Height                                   : 1 080 pixels
Display aspect ratio                     : 16:9
Frame rate mode                          : Constant
Frame rate                               : 23.976 (24000/1001) FPS
Color space                              : YUV
Chroma subsampling                       : 4:2:0
Bit depth                                : 8 bits
Scan type                                : Progressive
Bits/(Pixel*Frame)                       : 0.080
Stream size                              : 2.39 GiB (95%)
Language                                 : English
Default                                  : Yes
Forced                                   : No
Color range                              : Limited
Color primaries                          : BT.709
Transfer characteristics                 : BT.709
Matrix coefficients                      : BT.709

Audio
ID                                       : 2
Format                                   : AAC LC
Format/Info                              : Advanced Audio Codec Low Complexity
Codec ID                                 : A_AAC-2
Duration                                 : 1 h 25 min
Bit rate                                 : 192 kb/s
Channel(s)                               : 2 channels
Channel layout                           : L R
Sampling rate                            : 48.0 kHz
Frame rate                               : 46.875 FPS (1024 SPF)
Compression mode                         : Lossy
Stream size                              : 116 MiB (5%)
Title                                    : [Hindi Dub] MelbetCinema
Language                                 : Hindi
Default                                  : Yes
Forced                                   : No
Category:Anime > Movies
Lang:Hindi  Hindi
Total Size:2.50 GB
Info Hash:2703433363312dbd29cb77b2928b2c8afd63fae2
Added By:MelbetCinema7
Date Added:31-05-2021 11:38:57

Files

File List: 
 File Size
Justice Society World War II (2021) [Hindi Dub] 1080p WEBRip MelbetCinema.mkv2.50 GB



Comments

There are currently no comments. Be the first one to write something !