nascar Jupiter's Legacy formula 1 Jupiters Legacy S01E02 tom clancy's without remorse 2021 Jupiters Legacy S01E03 Clarice S01E08 Jupiters Legacy S01E01 Godzilla vs. Kong 2021 ettv 0 Young Sheldon s04e17 rq.mp4 aspirants mortal kombat the blacklist SEAL Team S04E13 saturday night live Blue Bloods s11e14 Xxx The World Ends with You s01e05 In the Earth 2021 ufc Raya and the Last Dragon 2021 ddr proper wrath of man Nobody 2021 The Marksman 2021 invincible evo etmovies Vanquish 2021 yts Saturday Night Live S46E18 The Unholy 2021 Greys Anatomy S17E14 f1 2021 The Virtuoso 2021 Magnum P.I. S03E16 boxing The Flash s07e08 etrg Those Who Wish Me Dead 2021 Stowaway 2021 Malayalam  nayattu The Handmaids Tale S04E04 hindi 2021 Jupiters Legacy Justice Society World War II 2021 Wrath of Man 2021 voyagers 2021 the blacklist s08e16 Zack Snyders Justice League 2021 mumbai saga without remorse Wwe hindi The Mosquito Coast S01E03 Things Heard and Seen 2021 ita  Manifest  f1 Mortal Kombat 2021 tamil ethd vitthal teedi the mitchells vs. the machines 2021 canelo malayalam 2021 Tom Clancys Without Remorse 2021 
Warning! Use a VPN When Downloading Torrents!
Your IP Address is 3.236.122.9. Location United States
Your Internet Provider can see when you download torrents! Hide your IP Address with a VPN
ETTV warns: You should use VPN to hide your torrenting. HIDE ME NOW
ETTV Recommended TV Shows
Magnum.P.I.2018.S03E16.720p.WEB.H264-GGEZ torrent
The.Blacklist.S08E16.720p.HDTV.x264-SYNCOPY torrent
Van.Helsing.S05E04.720p.WEB.H264-GGEZ torrent
WWE Talking Smack 8th May 2021 720p WEBRip h264-TJ [TJET] torrent
City.on.a.Hill.S02E07.720p.WEB.H264-GLHF torrent
Final.Space.S03E08.1080p.WEBRip.x264-BAE torrent
Godfather.of.Harlem.S02E04.720p.WEB.H264-GGEZ torrent
Saturday.Night.Live.S46E18.Elon.Musk.and.Miley.Cyrus.720p.HDTV.x264-CRiMSON torrent
UFC.Fight.Night.Rodriguez.vs.Waterson.WEB-DL.H264.Fight-BB torrent
MasterChef.Australia.S13E15.720p.HDTV.x264-ORENJI torrent

ETTV Recommended SD
The.Dry.2021.BRRip.XviD.AC3-EVO torrent
Wander.2020.BRRip.XviD.AC3-EVO torrent
Deceived.by.My.Mother-in-Law.2021.LIFETIME.720p.WEB-DL.AAC2.0.h2 torrent
Cosmic.Sin.2021.BDRip.XviD.AC3-EVO torrent

ETTV Recommended HD
Judas and the Black Messiah (2021) [LaKeith Stanfield] 1080p H264 DolbyD 5.1 ⛦ ©️nickarad torrent
San Andreas 2D & 3D (2015)[BDRip & BDRemux 1080p x 264 by alE13 AC3/DTS][Multi Audio & Multi Subtitles][Eng] torrent
The House With A Clock In Its Walls - Fantasy 2018 Eng Rus Multi-Subs 1080p [H264-mp4] torrent
88 Minutes (2007) [Al Pacino] 1080p H264 DolbyD 5.1 ⛦ ©️nickarad torrent

ETTV Recommended UHD
The.Princess.Bride.1987.BDRip.2160p.UHD.HDR10Plus.Eng.DTS-HD.MA.DD5.1.gerald99 torrent
Fear.and.Loathing.in.Las.Vegas.1998.2160p.Upscaled.Open.Matte.Eng.DTS.DD5.1.gerald99 torrent
Big.Fish.2003.BDRip.2160p.UHD.HDR.Multilang.TrueHD.DD5.1.gerald99 torrent
Possession.1981.4K.SDR.2160p.10bit.BDRip Ita Eng Fre x265-NAHOM torrent
After.Earth.2013.WEBRip.2160p.UHD.HDR.ENG.DTS-HD.MA.DD5.1.gerald99 torrent
9.2009.2160p.Upscaled.Eng.DTS-HD.MA.DD5.1.gerald99 torrent

ETTV Recommended Cam
Long Story Short (2021) English HDCAM x264 AAC By Full4Movies torrent
Ascendant (2021) 720p HDCAM English New Movie x264 AAC By Full4Movies torrent
Those Who Wish Me Dead.2021.1080p.HDCAM.X264-Frango torrent
Wrath of Man (2021) 720p HDCAM English x264 AAC By Full4Movies torrent

ETTV Recommended Foreign
Iris (1987) UNCUT 720p DVDRip x264 [Dual Audio] [Hindi DD 2.0 - Dutch 2.0] Exclusive By -=!Dr.STAR!=- torrent
Asuraguru (2021) HDRip 720p Malayalam (Org) + Tamil (DD5.1) 1.1GB  ESub[MB] torrent
Stand By Me Doraemon 1 And 2 2014-2020 720p.BluRay x264 Mkvking torrent
Mortal.Kombat.2021.SPANiSH.2160p.HMAX.WEB-DL.DDP5.1.Atmos.HDR.HEVC-dem3nt3 torrent
Without.Remorse.Senza.Rimorso.Di.Tom.Clancy.2021.iTALiAN.MULTi.UHD.HDR.WEB.x265-MeM.mkv torrent
The Legend of Hei 2019 CHINESE 720p BluRay HEVC x265-RMTeam  torrent

ETTV Recommended Music
[rock] (2021) Silver Synthetic - Silver Synthetic [FLAC] [DarkAngie] torrent
The Official UK Top 100 Singles Chart (07-May-2021) Mp3 320kbps [PMEDIA] ⭐️ torrent
50 Tracks Alt NOW (ETTV)  Playlist Spotify Mp3~320  kbps Beats⭐ torrent
[ambient, electronic] (2021) Hannah Peel - Fir Wave [FLAC] [DarkAngie] torrent
[indie-folk] (2021) Angel Olsen - Song of the Lark and Other Far Memories [FLAC] [DarkAngie] torrent
VA - 50s Hits Essentials (2021) Mp3 320kbps [PMEDIA] ⭐️ torrent


Download Torrent "Formula-E 2021 - Round 05 & 06 - Valencia E-Prix Weekend (1080p60 WEB-D..."

IMDB Details
Description:

N/A

Genre:

N/A

Download Torrent (Magnet)
Download Torrent (File)

Seeds: 30
Leechers: 17

Uploaded by:
deifer


Category:
TV > Sport


Details
Title:Formula-E 2021 - Round 05 & 06 - Valencia E-Prix Weekend (1080p60 WEB-D...
Description:
Formula-E 2021 - Round 05 & 06 - Valencia E-Prix Weekend (1080p60 WEB-DL HEVC AC3 x265 10bit Eng-deef)

Full Formula E weekend including:
Race 1 - Practice 1
Race 1 - Practice 2
Race 1 - Qualifying
Race 1 - Race
Race 2 - Practice 3
Race 2 - Qualifying
Race 2 - Race
Round 05-06 - Valencia Review


*note: check .txt file in torrent if you are struggling to play HEVC files on your device.

General
Unique ID                                : 82791208808431211887691142382605464450 (0x3E4901BECCA3C014BA55028D94C67382)
Complete name                            : Formula-E 2021 - Round 05 & 06 - Valencia E-Prix Weekend (1080p WEB-DL HEVC AAC x265 10bit Eng-deef)\01. 2021 Valencia E-Prix - Race 5 - Practice 1 (703mb 1920x1080 1611kbps x265 deef).mkv
Format                                   : Matroska
Format version                           : Version 4
File size                                : 702 MiB
Duration                                 : 59 min 30 s
Overall bit rate                         : 1 651 kb/s
Encoded date                             : UTC 2021-04-25 06:25:46
Writing application                      : HandBrake 1.3.3 2020061300
Writing library                          : Lavf58.29.100
ErrorDetectionType                       : Per level 1

Video
ID                                       : 1
Format                                   : HEVC
Format/Info                              : High Efficiency Video Coding
Format profile                           : Main [email protected]@Main
Codec ID                                 : V_MPEGH/ISO/HEVC
Duration                                 : 59 min 30 s
Bit rate                                 : 1 458 kb/s
Width                                    : 1 920 pixels
Height                                   : 1 080 pixels
Display aspect ratio                     : 16:9
Frame rate mode                          : Constant
Frame rate                               : 60.000 FPS
Color space                              : YUV
Chroma subsampling                       : 4:2:0
Bit depth                                : 10 bits
Bits/(Pixel*Frame)                       : 0.012
Stream size                              : 620 MiB (88%)
Writing library                          : x265 3.2.1+1-b5c86a64bbbe:[Windows][GCC 9.2.0][64 bit] 10bit
Encoding settings                        : cpuid=1111039 / frame-threads=3 / numa-pools=12 / wpp / no-pmode / no-pme / no-psnr / no-ssim / log-level=2 / input-csp=1 / input-res=1920x1080 / interlace=0 / total-frames=0 / level-idc=0 / high-tier=1 / uhd-bd=0 / ref=2 / no-allow-non-conformance / no-repeat-headers / annexb / no-aud / no-hrd / info / hash=0 / no-temporal-layers / open-gop / min-keyint=60 / keyint=600 / gop-lookahead=0 / bframes=4 / b-adapt=0 / b-pyramid / bframe-bias=0 / rc-lookahead=15 / lookahead-slices=6 / scenecut=40 / radl=0 / no-splice / no-intra-refresh / ctu=64 / min-cu-size=8 / no-rect / no-amp / max-tu-size=32 / tu-inter-depth=1 / tu-intra-depth=1 / limit-tu=0 / rdoq-level=0 / dynamic-rd=0.00 / no-ssim-rd / signhide / no-tskip / nr-intra=0 / nr-inter=0 / no-constrained-intra / strong-intra-smoothing / max-merge=2 / limit-refs=3 / no-limit-modes / me=1 / subme=2 / merange=57 / temporal-mvp / no-hme / weightp / no-weightb / no-analyze-src-pics / deblock=0:0 / sao / no-sao-non-deblock / rd=2 / selective-sao=4 / early-skip / rskip / fast-intra / no-tskip-fast / no-cu-lossless / no-b-intra / no-splitrd-skip / rdpenalty=0 / psy-rd=2.00 / psy-rdoq=0.00 / no-rd-refine / no-lossless / cbqpoffs=0 / crqpoffs=0 / rc=crf / crf=27.0 / qcomp=0.60 / qpstep=4 / stats-write=0 / stats-read=0 / ipratio=1.40 / pbratio=1.30 / aq-mode=2 / aq-strength=1.00 / cutree / zone-count=0 / no-strict-cbr / qg-size=32 / no-rc-grain / qpmax=69 / qpmin=0 / no-const-vbv / sar=1 / overscan=0 / videoformat=5 / range=0 / colorprim=1 / transfer=1 / colormatrix=1 / chromaloc=0 / display-window=0 / cll=0,0 / min-luma=0 / max-luma=1023 / log2-max-poc-lsb=8 / vui-timing-info / vui-hrd-info / slices=1 / no-opt-qp-pps / no-opt-ref-list-length-pps / no-multi-pass-opt-rps / scenecut-bias=0.05 / no-opt-cu-delta-qp / no-aq-motion / no-hdr / no-hdr-opt / no-dhdr10-opt / no-idr-recovery-sei / analysis-reuse-level=5 / scale-factor=0 / refine-intra=0 / refine-inter=0 / refine-mv=1 / refine-ctu-distortion=0 / no-limit-sao / ctu-info=0 / no-lowpass-dct / refine-analysis-type=0 / copy-pic=1 / max-ausize-factor=1.0 / no-dynamic-refine / no-single-sei / no-hevc-aq / no-svt / no-field / qp-adaptation-range=1.00
Default                                  : Yes
Forced                                   : No
Color range                              : Limited
Color primaries                          : BT.709
Transfer characteristics                 : BT.709
Matrix coefficients                      : BT.709

Audio
ID                                       : 2
Format                                   : AC-3
Format/Info                              : Audio Coding 3
Commercial name                          : Dolby Digital
Codec ID                                 : A_AC3
Duration                                 : 59 min 30 s
Bit rate mode                            : Constant
Bit rate                                 : 160 kb/s
Channel(s)                               : 2 channels
Channel layout                           : L R
Sampling rate                            : 48.0 kHz
Frame rate                               : 31.250 FPS (1536 SPF)
Compression mode                         : Lossy
Delay relative to video                  : 1 ms
Stream size                              : 68.1 MiB (10%)
Title                                    : Stereo
Language                                 : English
Service kind                             : Complete Main
Default                                  : Yes
Forced                                   : No

If you like my uploads, feel free to donate crypto to help with seedbox costs. Any donation is greatly appreciated.
BTC - 1GfSamp573numJvoBbcCGNK1tACKs7t2U4
ETH - 0xb4529a2e9447c0afd48c439068e1ff37e8f54400
XRP - 0xb4529a2e9447c0afd48c439068e1ff37e8f54400
DASH - XuVe4aDYFrpXqfRFX77LNVQtVRjUHpnUfp
Category:TV > Sport
Lang:English  English
Total Size:7.71 GB
Info Hash:096a36b93e093e086247aefc2b4b3691999037d3
Added By:deifer
Date Added:04-05-2021 06:57:08

  

Files

File List: 
 File Size
01. 2021 Valencia E-Prix - Race 5 - Practice 1 (703mb 1920x1080 1611kbps x265 deef).mkv702 MB
02. 2021 Valencia E-Prix - Race 5 - Practice 2 (546mb 1920x1080 1677kbps x265 deef).mkv546 MB
03. 2021 Valencia E-Prix - Race 5 - Qualifying (1043mb 1920x1080 1587kbps x265 deef).mkv1.02 GB
04. 2021 Valencia E-Prix - Race 5 - Race (1456mb 1920x1080 1660kbps x265 deef).mkv1.42 GB
05. 2021 Valencia E-Prix - Race 6 Race (1621mb 1920x1080 1851kbps x265 deef).mkv1.58 GB
06. 2021 Valencia E-Prix - Race 6 - Practice 3 (674mb 1920x1080 1550kbps x265 deef).mkv674 MB
07. 2021 Valencia E-Prix - Race 6 - Qualifying (1050mb 1920x1080 1597kbps x265 deef).mkv1.02 GB
08. 2021 Valencia E-Prix - Round 05-06 - Valencia Review (810mb 1920x1080 2128kbps x265 deef).mkv809 MB
How to play these HEVC files.txt3.76 kB
info.txt5.38 kB
logo.png9.77 kB
poster.jpg64.79 kB



Comments

There are currently no comments. Be the first one to write something !