Chaos Walking 2021 mumbai saga Line of Duty S06E05 hindi 2021 rq.mp4 The Falcon and the Winter Soldier s01e01 0 the walking dead Debris S01E08 ettv xxx The Real Housewives of Atlanta S13E18 line of duty raya and the last dragon 2021 The Nevers debris Godfather of Harlem S02E01 karnan mortal kombat  Last Week Tonight with John Oliver S08E09 ajeeb daastaans Bull S05E12 City on a Hill S02E04 evo batwoman s02e11 Family Guy S19E17 the unholy 2021 The Courier 2021 when calls the heart s08e09 nobody 2021 ddr malayalam The Falcon and the Winter Soldier S01E05 Zack Snyders Justice League 2021 9-1-1 The Blacklist S08E13 tamil mortal kombat 2021 American Idol S19E14 Mare of Easttown  The Falcon and The Winter Soldier S01E03 Below Deck Sailing Yacht S02E08 ethd 90 Day Fiance S08E19 The Falcon and the Winter Soldier S01E04 9-1-1 S04E09 yts proper The Neighborhood S03E14 The Rookie S03E11 the rookie Fear the Walking Dead S06E09 wwe The Nevers S01E01 9-1-1 Lone Star S02E09 Thunder Force 2021 Good Girls S04E06 Batwoman etrg Godzilla vs. Kong 2021 The Falcon and the Winter Soldier The Marksman 2021 Mare of Easttown s01e01 nobody Invincible  The Good Doctor S04E14 the nevers s01e02 etmovies All American S03E10 Vanquish 2021 Black Lightning S04E08 ita hindi 
Warning! Use a VPN When Downloading Torrents!
Your IP Address is 3.238.206.122. Location United States
Your Internet Provider can see when you download torrents! Hide your IP Address with a VPN
ETTV warns: You should use VPN to hide your torrenting. HIDE ME NOW
ETTV Recommended TV Shows
WWE NXT 2021 04 20 HDTV x264-NWCHD [TJET] torrent
Big.Sky.2020.S01E12.720p.HDTV.x264-SYNCOPY torrent
FBI.Most.Wanted.S02E11.720p.HDTV.x264-SYNCOPY torrent
FBI.S03E11.720p.WEB.H264-GGWP torrent
Mayans.M.C.S03E07.What.Comes.of.Handlin.Snakeskin.720p.HDTV.x264-CRiMSON torrent
NCIS.S18E12.720p.HDTV.x264-SYNCOPY torrent
New.Amsterdam.2018.S03E08.720p.WEB.H264-STRONTiUM torrent
Prodigal.Son.S02E09.720p.WEB.H264-CAKES torrent
Supergirl.S06E04.720p.HDTV.x264-SYNCOPY torrent
The.Resident.S04E10.720p.WEB.H264-CAKES torrent

ETTV Recommended SD
The.Boonies.2021.HDRip.XviD.AC3-EVO torrent
The.Marksman.2021.BRRip.XviD.AC3-EVO torrent
The.Marijuana.Conspiracy.2021.HDRip.XviD.AC3-EVO torrent
Hellbox.2021.BRRip.XviD.AC3-EVO torrent

ETTV Recommended HD
The Comeback Trail 2021 1080p WEB-Rip H264 AC3 5-1 KINGDOM-RG torrent
King Kong (1976)[BDRemux 1080p x 264 by alE13 AC3/DTS][Lektor & Sub Eng/PL][Eng] torrent
Firefly Rob Zombies Complete 4 Film Series - Horror 2002-2019 Eng Subs 720p [H264-mp4] torrent
Ghost Rider Spirit of Vengeance  (2011)  3D HSBS 1080p H264 DolbyD 5.1 👓 ©️nickarad torrent

ETTV Recommended UHD
Tron.2.2010.BRRip.2160p.Upscaled.Open.Matte.Eng.DTS-HD.MA.DD5.1.gerald99 torrent
Titanic.1997.BDRip.2160p.Upscaled.Open.Matte.Eng.DTS-HD.MA.DD5.1.gerald99 torrent
Love.and.Monsters.2020.ITA.ENG.2160p.UHD.BluRay.x265.10bit.HDR-MeM.mkv torrent
Back.to.the.Future.1985.BDRip.2160p.UHD.HDR10Plus.Eng.TrueHD.DD5.1.gerald99 torrent
Back.to.the.Future.Part.II.1989.BDRip.2160p.UHD.HDR10Plus.Eng.TrueHD.DD5.1.gerald99 torrent
Back.to.the.Future.Part.III.1990.BDRip.2160pUHD.HDR10Plus.Eng.TrueHD.DD5.1.gerald99 torrent

ETTV Recommended Cam
Long Story Short (2021) English HDCAM x264 AAC By Full4Movies torrent
Ascendant (2021) 720p HDCAM English New Movie x264 AAC By Full4Movies torrent
Mortal Kombat (2021) 720p HDCAM English New Movie x264 AAC By Full4Movies torrent
Voyagers (2021) 720p HDCAM English New Movie x264 AAC By Full4Movies torrent

ETTV Recommended Foreign
Master (2021) UNCUT 1080p WEB-HDRip [Hindi (ORG DD 2.0) – Tamil 2.0] x264 AAC ESub By Full4Movies torrent
Tasmanian Devils (2013) 720p BluRay x264 [Dual Audio] [Hindi DD 2.0 - English 5.1] Exclusive By -=!Dr.STAR!=- torrent
Dreams of Getting Rich 2021 HDRip HC 1080P x264 AAC Mandarin torrent
Iris (1987) UNCUT 720p DVDRip x264 [Dual Audio] [Hindi DD 2.0 - Dutch 2.0] Exclusive By -=!Dr.STAR!=- torrent
Asuraguru (2021) HDRip 720p Malayalam (Org) + Tamil (DD5.1) 1.1GB  ESub[MB] torrent
Stand By Me Doraemon 1 And 2 2014-2020 720p.BluRay x264 Mkvking torrent

ETTV Recommended Music
Frank Zappa - Hot Rats (1969) [192khz - 24bits] torrent
Marques Carroll - The Ancestors\' Call (2021) Flac torrent
Kim Wilde - Now & Forever (1995) Flac torrent
75 Tracks Mood Booster (ETTV)  Playlist Spotify Mp3~320  kbps Beats⭐ torrent
Jose James - While You Were Sleeping (2014) [24bits Hi-Res] torrent
Frank Zappa - Just Another Band From L.A. (1972) [192khz - 24bits] torrent


Download Torrent "Batman.Vs.Superman.2016.Imax.Extended.Cut.1080p.H264.AC3.Will1869"

IMDB Details
Description:

Who has the better superpower? Batman? Superman? Find out by watching.

Genre:

Short, Action

Download Torrent (Magnet)
Download Torrent (File)

Seeds: 2
Leechers: 0

Uploaded by:
Will1869


Category:
Movies > HD 1080p (Great for large screens)


Details
Title:Batman.Vs.Superman.2016.Imax.Extended.Cut.1080p.H264.AC3.Will1869
Description:
 

Batman v Superman: Dawn of Justice (2016)



Complete name : Batman.Vs.Superman.2016.Imax.Extended.Cut.1080p.H264.AC3.Will1869.mp4
Format : MPEG-4
Format profile : Base Media / Version 2
Codec ID : mp42 (mp42/isom/avc1)
File size : 5.83 GiB
Duration : 3 h 2 min
Overall bit rate mode : Variable
Overall bit rate : 4 571 kb/s

Video
ID : 1
Format : AVC
Format/Info : Advanced Video Codec
Format profile : [email protected]
Format settings, CABAC : Yes
Format settings, ReFrames : 2 frames
Format settings, GOP : M=1, N=24
Codec ID : avc1
Codec ID/Info : Advanced Video Coding
Duration : 3 h 2 min
Bit rate mode : Variable
Bit rate : 4 113 kb/s
Maximum bit rate : 6 265 kb/s
Width : 1 920 pixels
Height : 1 080 pixels
Display aspect ratio : 16:9
Frame rate mode : Constant
Frame rate : 23.976 (24000/1001) FPS
Color space : YUV
Chroma subsampling : 4:2:0
Bit depth : 8 bits
Scan type : Progressive
Bits/(Pixel*Frame) : 0.083
Stream size : 5.24 GiB (90%)
Encoded date : UTC 2021-04-06 14:34:01
Tagged date : UTC 2021-04-06 21:07:36
Color primaries : BT.709
Transfer characteristics : BT.709
Matrix coefficients : BT.709

Audio
ID : 2
Format : AC-3
Format/Info : Audio Coding 3
Mode extension : CM (complete main)
Format settings, Endianness : Big
Codec ID : ac-3
Duration : 3 h 2 min
Bit rate mode : Constant
Bit rate : 448 kb/s
Channel(s) : 6 channels
Channel positions : Front: L C R, Side: L R, LFE
Sampling rate : 48.0 kHz
Frame rate : 31.250 FPS (1536 spf)
Bit depth : 16 bits
Compression mode : Lossy
Stream size : 585 MiB (10%)
Title : English (ac3 5.1)
Language : English
Default : Yes
Alternate group : 1

Text
ID : 3
Format : mp4s
Codec ID : E0
Duration : 2 h 53 min
Bit rate mode : Variable
Bit rate : 7 276 b/s
Maximum bit rate : 4 249 Mb/s
Stream size : 9.04 MiB (0%)
Language : English

Source - FraMeSToR 4k HDR 75gb 
That ive changed to 1080p sdr for everyone that dont have 4k hdr tvs
Encoded By - Will1869

https://www.imdb.com/title/tt2975590/



Stars: Ben Affleck, Henry Cavill, Amy Adams 



Fearing that the actions of Superman are left unchecked, Batman takes on the Man of Steel, while the world wrestles with what kind of a hero it really needs.




 

 











Category:Movies > HD 1080p
Lang:English  English
Total Size:5.83 GB
Info Hash:48af327bb98b40ade0df5331101ed5012f4dccb3
Added By:Will1869
Date Added:07-04-2021 01:52:08

Files

File List: 
 File Size
Batman.Vs.Superman.2016.Imax.Extended.Cut.1080p.H264.AC3.Will1869.mp45.83 GB
Downloaded from laidbackmanor.xyz.txt104.00 B
laidbackmanor - Built On Laravel.url52.00 B



Comments

There are currently no comments. Be the first one to write something !