invincible the falcon and the winter soldier s01e05 Formula 1 malayalam  godzilla vs. kong 2021 motogp Good Girls S04E06 ddr Zack Snyders Justice League 2021 Mare of Easttown  Magnum P.I. S03E14 The Real Housewives of Atlanta S13E18 etmovies the nevers The Nevers S01E01 formula ita ettv batwoman s02e11 The Rookie S03E11 The Marksman 2021 Zack Snyders Justice League None Godfather of Harlem S02E01 Vanquish 2021 yts etrg The Courier 2021 Line of Duty S06E05 nobody the rookie The Falcon and the Winter Soldier S01E04 Voyagers 2021 Mare of Easttown S01E01 Blue Bloods S11E12 The Blacklist S08E13 mumbai saga Batwoman 90 Day Fiance S08E19 Raya and the Last Dragon 2021 Tamil Chaos Walking 2021 Boss Level 2021 proper ufc wwe The Falcon and the Winter Soldier S01E01 nobody 2021 hindi rq.mp4 evo 0 The Falcon and the winter soldier  Mortal Kombat 2021 Thunder Force 2021 f1 Fear the Walking Dead S06E09 f1 2021 Godzilla vs Kong ethd Hindi 2021 Formula1 Greys Anatomy S17E12 mortal kombat line of duty Xxx The Unholy 2021 City on a Hill S02E04 The Falcon and The Winter Soldier S01E03 Family Guy S19E17 karnan Ajeeb Daastaans The Nevers S01E02 indycar 
Warning! Use a VPN When Downloading Torrents!
Your IP Address is 3.230.143.40. Location United States
Your Internet Provider can see when you download torrents! Hide your IP Address with a VPN
ETTV warns: You should use VPN to hide your torrenting. HIDE ME NOW
ETTV Recommended TV Shows
WWE Monday Night Raw 2021 04 19 HDTV x264-NWCHD [TJET] torrent
AEW DARK Elevation 19th April 2021 720p WEBRip h264-TJ [TJET] torrent
9-1-1.S04E09.720p.WEB.H264-CAKES torrent
All.American.S03E10.720p.HDTV.x264-SYNCOPY torrent
All.Rise.S02E12.720p.HDTV.x264-SYNCOPY torrent
American.Dad.S17E01.1080p.WEBRip.x264-CAKES torrent
Black.Lightning.S04E08.720p.HDTV.x264-SYNCOPY torrent
Bull.2016.S05E12.720p.HDTV.x264-SYNCOPY torrent
Debris.S01E08.720p.HDTV.x264-SYNCOPY torrent
The.Good.Doctor.S04E14.720p.HDTV.x264-SYNCOPY torrent

ETTV Recommended SD
Alpha.Code.2020.HDRip.XviD.AC3-EVO torrent
Black.Friday.Subliminal.2021.HDRip.XviD.AC3-EVO torrent
Woman.in.the.Woods.2020.HDRip.XviD.AC3-EVO torrent
Righteous.Villains.2020.HDRip.XviD.AC3-EVO torrent

ETTV Recommended HD
The Comeback Trail 2021 1080p WEB-Rip H264 AC3 5-1 KINGDOM-RG torrent
King Kong (1976)[BDRemux 1080p x 264 by alE13 AC3/DTS][Lektor & Sub Eng/PL][Eng] torrent
Firefly Rob Zombies Complete 4 Film Series - Horror 2002-2019 Eng Subs 720p [H264-mp4] torrent
Ghost Rider Spirit of Vengeance  (2011)  3D HSBS 1080p H264 DolbyD 5.1 ūüĎď ¬©ÔłŹnickarad torrent

ETTV Recommended UHD
Tron.2.2010.BRRip.2160p.Upscaled.Open.Matte.Eng.DTS-HD.MA.DD5.1.gerald99 torrent
Titanic.1997.BDRip.2160p.Upscaled.Open.Matte.Eng.DTS-HD.MA.DD5.1.gerald99 torrent
Love.and.Monsters.2020.ITA.ENG.2160p.UHD.BluRay.x265.10bit.HDR-MeM.mkv torrent
Back.to.the.Future.1985.BDRip.2160p.UHD.HDR10Plus.Eng.TrueHD.DD5.1.gerald99 torrent
Back.to.the.Future.Part.II.1989.BDRip.2160p.UHD.HDR10Plus.Eng.TrueHD.DD5.1.gerald99 torrent
Back.to.the.Future.Part.III.1990.BDRip.2160pUHD.HDR10Plus.Eng.TrueHD.DD5.1.gerald99 torrent

ETTV Recommended Cam
Long Story Short (2021) English HDCAM x264 AAC By Full4Movies torrent
Ascendant (2021) 720p HDCAM English New Movie x264 AAC By Full4Movies torrent
Mortal Kombat (2021) 720p HDCAM English New Movie x264 AAC By Full4Movies torrent
Voyagers (2021) 720p HDCAM English New Movie x264 AAC By Full4Movies torrent

ETTV Recommended Foreign
Master (2021) UNCUT 1080p WEB-HDRip [Hindi (ORG DD 2.0) ‚Äď Tamil 2.0] x264 AAC ESub By Full4Movies torrent
Tasmanian Devils (2013) 720p BluRay x264 [Dual Audio] [Hindi DD 2.0 - English 5.1] Exclusive By -=!Dr.STAR!=- torrent
Dreams of Getting Rich 2021 HDRip HC 1080P x264 AAC Mandarin torrent
Iris (1987) UNCUT 720p DVDRip x264 [Dual Audio] [Hindi DD 2.0 - Dutch 2.0] Exclusive By -=!Dr.STAR!=- torrent
Asuraguru (2021) HDRip 720p Malayalam (Org) + Tamil (DD5.1) 1.1GB  ESub[MB] torrent
Stand By Me Doraemon 1 And 2 2014-2020 720p.BluRay x264 Mkvking torrent

ETTV Recommended Music
Mariah Carey - Music Box (1993) (2015 Reissue) [96khz - 24bits] torrent
[rock] (2021) Hey, King! - Hey, King! [FLAC] [DarkAngie] torrent
Frank Zappa - Hot Rats (1969) [192khz - 24bits] torrent
Marques Carroll - The Ancestors\' Call (2021) Flac torrent
Kim Wilde - Now & Forever (1995) Flac torrent
75 Tracks Mood Booster (ETTV)  Playlist Spotify Mp3~320  kbps Beats‚≠ź torrent


Download Torrent "Unhinged 2020 x264 720p Esub BluRay Dual Audio English Hindi THE GOPI SAHI"

IMDB Details
Description:

After a confrontation with an unstable man at an intersection, a woman becomes the target of his rage.

Genre:

Action, Thriller

Download Torrent (Magnet)
Download Torrent (File)

Seeds: 62
Leechers: 110

Uploaded by:
GOPISAHI


Category:
Movies > Dubs/Dual Audio


Details
Title:Unhinged 2020 x264 720p Esub BluRay Dual Audio English Hindi THE GOPI SAHI
Description:


Unhinged 2020 x264 720p Esub BluRay Dual Audio English Hindi THE GOPI SAHI

Format                         : Matroska
Format version                 : Version 4
File size                      : 705 MiB
Duration                       : 1 h 30 min
Overall bit rate               : 1 094 kb/s
Movie name                     : Unhinged 2020 GOPI SAHI
Encoded date                   : UTC 2020-11-14 09:46:11
Writing application            : mkvmerge v46.0.0 ('No Deeper Escape') 32-bit
Writing library                : libebml v1.3.10 + libmatroska v1.5.2

Video
ID                             : 1
Format                         : AVC
Format/Info                    : Advanced Video Codec
Format profile¬†¬†¬†¬†¬†¬†¬†¬†¬†¬†¬†¬†¬†¬†¬†¬† : [email protected]
Format settings                : CABAC / 5 Ref Frames
Format settings, CABAC         : Yes
Format settings, Reference fra : 5 frames
Codec ID                       : V_MPEG4/ISO/AVC
Duration                       : 1 h 30 min
Bit rate                       : 899 kb/s
Width                          : 1 280 pixels
Height                         : 534 pixels
Display aspect ratio           : 2.40:1
Frame rate mode                : Constant
Frame rate                     : 23.976 (24000/1001) FPS
Color space                    : YUV
Chroma subsampling             : 4:2:0
Bit depth                      : 8 bits
Scan type                      : Progressive
Bits/(Pixel*Frame)             : 0.055
Stream size                    : 579 MiB (82%)
Title                          : GOPI SAHI
Writing library                : x264 core 157 r2935 545de2f

Audio #1
ID                             : 2
Format                         : AAC LC
Format/Info                    : Advanced Audio Codec Low Complexity
Codec ID                       : A_AAC-2
Duration                       : 1 h 30 min
Bit rate                       : 96.0 kb/s
Channel(s)                     : 2 channels
Channel layout                 : L R
Sampling rate                  : 48.0 kHz
Frame rate                     : 46.875 FPS (1024 SPF)
Compression mode               : Lossy
Delay relative to video        : -21 ms
Stream size                    : 62.1 MiB (9%)
Title                          : GOPI SAHI
Language                       : Hindi
Default                        : Yes
Forced                         : No

Audio #2
ID                             : 3
Format                         : AAC LC
Format/Info                    : Advanced Audio Codec Low Complexity
Codec ID                       : A_AAC-2
Duration                       : 1 h 30 min
Bit rate                       : 96.0 kb/s
Channel(s)                     : 2 channels
Channel layout                 : L R
Sampling rate                  : 48.0 kHz
Frame rate                     : 46.875 FPS (1024 SPF)
Compression mode               : Lossy
Delay relative to video        : -21 ms
Stream size                    : 62.1 MiB (9%)
Title                          : GOPI SAHI
Language                       : English
Default                        : No
Forced                         : No

Text
ID                             : 4
Format                         : UTF-8
Codec ID                       : S_TEXT/UTF8
Codec ID/Info                  : UTF-8 Plain Text
Duration                       : 1 h 17 min
Bit rate                       : 53 b/s
Count of elements              : 993
Stream size                    : 30.7 KiB (0%)
Title                          : GOPI SAHI
Language                       : English
Default                        : Yes
Forced                         : No

Menu
00:00:00.000                   : :Chapter 1
00:04:55.045                   : :Chapter 2
00:07:47.425                   : :Chapter 3
00:12:03.890                   : :Chapter 4
00:19:14.070                   : :Chapter 5
00:25:58.515                   : :Chapter 6
00:28:19.740                   : :Chapter 7
00:32:44.087                   : :Chapter 8
00:36:04.454                   : :Chapter 9
00:39:43.047                   : :Chapter 10
00:45:20.635                   : :Chapter 11
00:49:30.718                   : :Chapter 12
01:01:47.370                   : :Chapter 13
01:09:41.427                   : :Chapter 14
01:12:52.493                   : :Chapter 15
01:18:56.607                   : :Chapter 16






Category:Movies > Dubs/Dual Audio
Lang:Hindi  Hindi
Total Size:705 MB
Info Hash:6ead4deca6dece4308a7bcbf9df5d277a0b1bb44
Added By:GOPISAHI
Date Added:25-02-2021 02:31:06

  

Files

File List: 
 File Size
Unhinged 2020 x264 720p Esub BluRay Dual Audio English Hindi THE GOPI SAHI.mkv705 MB



Comments

There are currently no comments. Be the first one to write something !