beats hindi 0 Blood Red Sky 2021 f9 1 suicide squad 2021 The Grand Tour rick and morty Fast and Furious Malayalam  Loki  snake eyes hostel daze xxx fast 9 Wwe evo Ted Lasso S02E02 The Green Knight 2021 tamil 2160p SurrealEstate S01E03 the last mercenary Jolt 2021 Hitmans Wifes Bodyguard 2021 Luca 2021 14 PHERE Wrath of Man formula 1 fast and furious 9 escape room Space Jam A New Legacy 2021 Escape Room Tournament of Champions 2021 The Outpost S04E03 F9 The Fast Saga 2021 Mimi 2021 thittam irandu jungle cruise city of dreams 2  f1 ted lasso Titanic The Green knight  2 Pig 2021 jungle cruise hindi Wrath of Man 2021 grand tour Jungle Cruise 1080p sarpatta parambarai Midnight in the Switchgrass 2021 ita F1 2021  jungle  gunpowder milkshake 2021 The Grand Tour s04e03 The Forever Purge 2021 hindi 2021  City of Dreams f9 2021 Hungama 2 City of Dreams Season 2 dc week The Tomorrow War 2021 mimi Black Widow 2021 A Quiet Place Part II 2021 ddr suicide squad The Suicide Squad 2021 haseen dillruba Old 2021 black widow Snake Eyes 2021 ettv snake eyes g.i. joe origins 2021 ufc the suicide squad luca brazzers Jungle Cruise 2021 3 rurouni kenshin old stillwater 2021 
Warning! Use a VPN When Downloading Torrents!
Your IP Address is . Location
Your Internet Provider can see when you download torrents! Hide your IP Address with a VPN
ETTV warns: You should use VPN to hide your torrenting. HIDE ME NOW
ETTV Recommended TV Shows
Beauty.and.the.Geek.AU.S07E10.HDTV.x264-FQM[ettv] torrent
Naked.and.Afraid.S13E01.1080p.WEB.h264-BAE[ettv] torrent
Animal.Kingdom.US.S05E04.1080p.WEBRip.x264-CAKES[ettv] torrent
Family.Karma.S02E09.720p.WEB.h264-BAE[ettv] torrent
Rick.and.Morty.S05E07.1080p.WEBRip.x264-CAKES[ettv] torrent
60.Minutes.S53E46.1080p.WEB.h264-BAE[ettv] torrent

ETTV Recommended SD
The.Christmas.Dance.2021.HDRip.XviD.AC3-EVO torrent
Meander.2021.HDRip.XviD.B4ND1T69 torrent
Jungle.Cruise.2021.HDRip.XviD.AC3-EVO torrent
The.Last.Mercenary.2021.HDRip.XviD.AC3-EVO torrent

ETTV Recommended HD
Luca.2021.1080p.Bluray.DTS-HD.MA.7.1.X264-EVO torrent
F9.The.Fast. Saga.2021.  1080P. Web-Rip 5.1.H. 264- Beats⭐ torrent
Malicious.Motives.2021.LIFETIME.720p.WEB-DL.AAC2.0.H264-LBR torrent
Monkeybone 2001 1080p BluRay x264 BONE torrent

ETTV Recommended UHD
Pokémon.Detective.Pikachu.2019.2160p.UHD.BluRay.REMUX.HDR.HEVC.Aymos.7.1-SYS.mkv torrent
Passengers.2016.2160p.UHD.BluRay.REMUX.HDR.HEVC.ATMOS.7.1-SYS.mkv torrent
Snatch.2000.BDRip.2160p.UHD.HDR.Eng.TrueHD.DD5.1.gerald99 torrent
The.Water.Diviner.2014.WEBRip.2160p.SDR.HEVC.Eng.DD5.1.gerald99 torrent
Repack.F9.The.Fast.Saga.2021.WEBRip.2160p.UHD.HDR.Eng.DDP5.1-Atmos.DD5.1.gerald99 torrent
Jungle.Cruise.2021.DSNP.WEBRip.2160p.UHD.HDR.Eng.DDP5.1-Atmos.DD5.1.gerald99 torrent

ETTV Recommended Cam
Escape Room: Tournament of Champions (2021) 720p CAMRip [Hindi-Sub] x264 1XBET torrent
Snake.Eyes.2021.720p.HDCAM.SLOTSLIGHTS.mkv torrent
Off.the.Rails.2021.720p.HDCAM.SLOTSLIGHTS.mkv torrent

ETTV Recommended Foreign
Come True (2020) ITA-ENG Ac3 5.1 BDRip 1080p H264 [ArMor] torrent
Miss Fisher & the Crypt of Tears (2020) BluRay 1080p.H264 Ita Eng AC3 5.1 Sub Ita Eng - realDMDJ torrent
F9.2021.SPANiSH.1080p.AMZN.WEB-DL.x264-dem3nt3 torrent
Blood.Red.Sky.2021.Ger.Spa.WEBRip.x264-YG⭐ torrent
Jungle Cruise (2021) Disney - FullHD 1080p.H264 Ita Eng AC3 5.1 Multisub - realDMDJ torrent
Mr.Klein.1976.(Alain Delon-Jeanne Moreau).1080p.BRRip.x264-Classics torrent

ETTV Recommended Music
Phil Collins - Going Back (2010) Flac torrent
Nicki Minaj - Pink Friday (2010) Flac torrent
Ariana grande  (ETTV)  Playlist Mp3~320   kbps~ Beats⭐ torrent
Justin Bieber (ETTV)  Playlist Mp3~320   kbps~ Beats⭐ torrent
Marie Plassard – Nacarat Pop (ETTV)  Playlist ~320   kbps~ Beats⭐ torrent
S.Téban  Mode Sport (ETTV)  Playlist ~320   kbps~ Beats⭐ torrent


Download Torrent "Koe no Katachi a.k.a A Silent Voice 2016 (1080p Dual Audio BluRay x265 HEVC..."

IMDB Details
Description:

N/A

Genre:

N/A

Download Torrent (Magnet)
Download Torrent (File)
Get VPN Before Download

Seeds: 56
Leechers: 15

Uploaded by:
theincognito


Category:
Anime > Movies


Details
Title:Koe no Katachi a.k.a A Silent Voice 2016 (1080p Dual Audio BluRay x265 HEVC...
Description:





Media Information

General
Format                                   : Matroska
Format version                           : Version 4
File size                                : 3.06 GiB
Duration                                 : 2 h 10 min
Overall bit rate                         : 3 372 kb/s
Movie name                               : Koe no Katachi - Encoded by theincognito
Encoded date                             : UTC 2021-02-10 02:45:40
Writing application                      : mkvmerge v53.0.0 ('Fool's Gold') 64-bit
Writing library                          : libebml v1.4.1 + libmatroska v1.6.2

Video
ID                                       : 1
Format                                   : HEVC
Format/Info                              : High Efficiency Video Coding
Format profile                           : Main [email protected]@Main
Codec ID                                 : V_MPEGH/ISO/HEVC
Duration                                 : 2 h 10 min
Bit rate                                 : 2 797 kb/s
Width                                    : 1 920 pixels
Height                                   : 1 036 pixels
Display aspect ratio                     : 1.85:1
Frame rate mode                          : Constant
Frame rate                               : 23.976 (24000/1001) FPS
Color space                              : YUV
Chroma subsampling                       : 4:2:0
Bit depth                                : 10 bits
Bits/(Pixel*Frame)                       : 0.059
Stream size                              : 2.54 GiB (83%)
Writing library                          : x265 3.4+70-db1196d35:[DJATOM's Mod][Windows][GCC 10.2.1][64 bit] 10bit
Encoding settings                        : cpuid=1111039 / frame-threads=3 / numa-pools=8 / wpp / no-pmode / no-pme / no-psnr / no-ssim / log-level=2 / input-csp=1 / input-res=1920x1036 / interlace=0 / total-frames=23388 / level-idc=0 / high-tier=1 / uhd-bd=0 / ref=4 / no-allow-non-conformance / no-repeat-headers / annexb / no-aud / no-hrd / info / hash=0 / no-temporal-layers / open-gop / min-keyint=23 / keyint=250 / gop-lookahead=0 / bframes=8 / b-adapt=2 / b-pyramid / bframe-bias=0 / rc-lookahead=25 / lookahead-slices=4 / scenecut=40 / hist-scenecut=0 / radl=0 / no-splice / no-intra-refresh / ctu=64 / min-cu-size=8 / no-rect / no-amp / max-tu-size=32 / tu-inter-depth=4 / tu-intra-depth=4 / limit-tu=4 / rdoq-level=2 / dynamic-rd=0.00 / no-ssim-rd / signhide / tskip / nr-intra=0 / nr-inter=0 / no-constrained-intra / strong-intra-smoothing / max-merge=3 / limit-refs=3 / limit-modes / me=3 / subme=3 / merange=57 / temporal-mvp / no-frame-dup / no-hme / weightp / no-weightb / no-analyze-src-pics / deblock=1:1 / sao / no-sao-non-deblock / rd=3 / selective-sao=4 / no-early-skip / rskip / rskip-edge-threshold=0.050000 / no-fast-intra / no-tskip-fast / no-cu-lossless / no-b-intra / no-splitrd-skip / rdpenalty=0 / psy-rd=0.80 / psy-rdoq=1.00 / no-rd-refine / no-lossless / cbqpoffs=0 / crqpoffs=0 / rc=crf / crf=18.0 / qcomp=0.60 / qpstep=4 / stats-write=0 / stats-read=0 / ipratio=1.40 / pbratio=1.30 / aq-mode=3 / aq-strength=1.10 / cutree / zone-count=0 / no-strict-cbr / qg-size=32 / no-rc-grain / qpmax=69 / qpmin=0 / no-const-vbv / sar=0 / overscan=0 / videoformat=5 / range=0 / colorprim=1 / transfer=1 / colormatrix=1 / chromaloc=0 / display-window=0 / cll=0,0 / min-luma=0 / max-luma=1023 / log2-max-poc-lsb=8 / vui-timing-info / vui-hrd-info / slices=1 / no-opt-qp-pps / no-opt-ref-list-length-pps / no-multi-pass-opt-rps / scenecut-bias=0.05 / hist-threshold=0.01 / no-opt-cu-delta-qp / no-aq-motion / no-hdr10 / no-hdr10-opt / no-dhdr10-opt / no-idr-recovery-sei / analysis-reuse-level=0 / analysis-save-reuse-level=0 / analysis-load-reuse-level=0 / scale-factor=0 / refine-intra=0 / refine-inter=0 / refine-mv=1 / refine-ctu-distortion=0 / no-limit-sao / ctu-info=0 / no-lowpass-dct / refine-analysis-type=0 / copy-pic=1 / max-ausize-factor=1.0 / no-dynamic-refine / no-single-sei / no-hevc-aq / no-svt / no-field / qp-adaptation-range=1.00 / no-scenecut-aware-qpconformance-window-offsets / right=0 / bottom=0 / decoder-max-rate=0 / no-vbv-live-multi-pass
Default                                  : Yes
Forced                                   : No
Color range                              : Limited
Color primaries                          : BT.709
Transfer characteristics                 : BT.709
Matrix coefficients                      : BT.709

Audio #1
ID                                       : 2
Format                                   : E-AC-3
Format/Info                              : Enhanced AC-3
Commercial name                          : Dolby Digital Plus
Codec ID                                 : A_EAC3
Duration                                 : 2 h 9 min
Bit rate mode                            : Constant
Bit rate                                 : 256 kb/s
Channel(s)                               : 6 channels
Channel layout                           : L R C LFE Ls Rs
Sampling rate                            : 48.0 kHz
Frame rate                               : 31.250 FPS (1536 SPF)
Compression mode                         : Lossy
Stream size                              : 238 MiB (8%)
Title                                    : Japanese
Language                                 : Japanese
Service kind                             : Complete Main
Default                                  : Yes
Forced                                   : Yes

Audio #2
ID                                       : 3
Format                                   : E-AC-3
Format/Info                              : Enhanced AC-3
Commercial name                          : Dolby Digital Plus
Codec ID                                 : A_EAC3
Duration                                 : 2 h 9 min
Bit rate mode                            : Constant
Bit rate                                 : 256 kb/s
Channel(s)                               : 6 channels
Channel layout                           : L R C LFE Ls Rs
Sampling rate                            : 48.0 kHz
Frame rate                               : 31.250 FPS (1536 SPF)
Compression mode                         : Lossy
Stream size                              : 237 MiB (8%)
Title                                    : English
Language                                 : English
Service kind                             : Complete Main
Default                                  : No
Forced                                   : No

Text #1
ID                                       : 4
Format                                   : PGS
Muxing mode                              : zlib
Codec ID                                 : S_HDMV/PGS
Codec ID/Info                            : Picture based subtitle format used on BDs/HD-DVDs
Duration                                 : 2 h 8 min
Bit rate                                 : 27.0 kb/s
Count of elements                        : 3012
Stream size                              : 24.7 MiB (1%)
Language                                 : English
Default                                  : Yes
Forced                                   : Yes

Text #2
ID                                       : 5
Format                                   : PGS
Muxing mode                              : zlib
Codec ID                                 : S_HDMV/PGS
Codec ID/Info                            : Picture based subtitle format used on BDs/HD-DVDs
Duration                                 : 2 h 8 min
Bit rate                                 : 21.7 kb/s
Count of elements                        : 3244
Stream size                              : 19.9 MiB (1%)
Language                                 : English
Default                                  : No
Forced                                   : No

Text #3
ID                                       : 6
Format                                   : PGS
Muxing mode                              : zlib
Codec ID                                 : S_HDMV/PGS
Codec ID/Info                            : Picture based subtitle format used on BDs/HD-DVDs
Duration                                 : 2 h 8 min
Bit rate                                 : 1 440 b/s
Count of elements                        : 174
Stream size                              : 1.32 MiB (0%)
Title                                    : Signs
Language                                 : English
Default                                  : No
Forced                                   : No

Text #4
ID                                       : 7
Format                                   : PGS
Muxing mode                              : zlib
Codec ID                                 : S_HDMV/PGS
Codec ID/Info                            : Picture based subtitle format used on BDs/HD-DVDs
Duration                                 : 2 h 4 min
Bit rate                                 : 23.4 kb/s
Count of elements                        : 3286
Stream size                              : 20.9 MiB (1%)
Language                                 : English
Default                                  : No
Forced                                   : No

Text #5
ID                                       : 8
Format                                   : PGS
Muxing mode                              : zlib
Codec ID                                 : S_HDMV/PGS
Codec ID/Info                            : Picture based subtitle format used on BDs/HD-DVDs
Duration                                 : 2 h 9 min
Bit rate                                 : 51.1 kb/s
Count of elements                        : 4665
Stream size                              : 47.2 MiB (2%)
Language                                 : Japanese
Default                                  : No
Forced                                   : No

Menu
00:00:00.000                             : en:Chapter 1
00:13:10.080                             : en:Chapter 2
00:22:55.374                             : en:Chapter 3
00:34:50.338                             : en:Chapter 4
00:44:34.171                             : en:Chapter 5
00:53:08.143                             : en:Chapter 6
01:03:58.709                             : en:Chapter 7
01:15:37.282                             : en:Chapter 8
01:30:03.189                             : en:Chapter 9
01:44:33.600                             : en:Chapter 10
01:56:25.812                             : en:Chapter 11
02:05:56.048                             : en:Chapter 12




Source Information

Release:
A Silent Voice 2016 JPN Hybrid 1080p Blu-Ray AVC DTS-HD MA - BluDragon [31.2 GB]



Category:Anime > Movies
Lang:Japanese  Japanese
Total Size:3.06 GB
Info Hash:25226e134236f03754077b06d1e77372023233af
Added By:theincognito
Date Added:10-02-2021 17:24:03

Files

File List: 
 File Size
Koe no Katachi a.k.a A Silent Voice 2016 (1080p Dual Audio BluRay x265 HEVC 10bit DDP 5.1 theincognito) [UTR].mkv3.06 GB



Comments

There are currently no comments. Be the first one to write something !