Clarice S01E03 The Rookie S03E07 batwoman Wonder Woman 1984 2020 wandavision malayalam The Marksman 2021 9-1-1 Lone Star S02E07 yts The Equalizer S01E04 hindi wwe 9-1-1 S04E07 90 Day Fiance S08E12 tom and jerry Snowpiercer S02E06 Resident Alien s01e05 evo The Rookie drishyam 2 The Little Things 2021 etmovies Judas and the Black Messiah 2021 A Discovery of Witches s02e08 The United States vs. Billie Holiday 2021 Ncis walking dead xxx hindi 2021 Charmed s03e05 Silk Road 2021 The Walking Dead S10E18 Superman and Lois S01E01 Batwoman s02e06 family guy NCIS New Orleans s07e10 proper American Idol S19E03 American gods Debris  Last Week Tonight with John Oliver S08E03 ita Black Lightning S04E04 SnowPiercer tom jerry 2021 rq.mp4 Tom and Jerry 2021 The Real Housewives of Atlanta S13E11 I Care a Lot 2021 Monster Hunter 2020 telugu Cosmic Sin 2021 The Blacklist S08E08 American Gods S03E07 Fear of Rain 2021 etrg Nomadland 2020 Tamil Men in Kilts A Roadtrip with Sam and Graham s01e03 wandavision s01e08 ettv NCIS Los Angeles S12E12 all american s03e07 the walking dead 9-1-1 Wrong Turn 2021 WandaVision S01E01 superman and lois S01E02 ddr Debris S01E01 WandaVision S01E07 The Walking Dead S10E17 ethd 
Warning! Use a VPN When Downloading Torrents!
Your IP Address is 18.210.12.229. Location United States
Your Internet Provider can see when you download torrents! Hide your IP Address with a VPN
ETTV warns: You should use VPN to hide your torrenting. HIDE ME NOW
ETTV Recommended TV Shows
The.Rookie.S03E07.720p.HDTV.x264-SYNCOPY torrent
WWE Monday Night Raw 2021 03 01 HDTV x264-NWCHD [TJET] torrent
9-1-1.S04E07.720p.WEB.H264-CAKES torrent
All.American.S03E07.720p.HDTV.x264-SYNCOPY torrent
Below.Deck.Sailing.Yacht.S02E01.720p.HDTV.x264-SYNCOPY torrent
Black.Lightning.S04E04.720p.HDTV.x264-SYNCOPY torrent
Debris.S01E01.720p.HDTV.x264-SYNCOPY torrent
Snowpiercer.S02E06.1080p.WEBRip.x264-CAKES torrent

ETTV Recommended SD
Scare.Me.2020.BRRip.XviD.AC3-EVO torrent
Ice.House.2020.HDRip.XviD.AC3-EVO torrent
Cosmic.Sin.2021.HDRip.XviD.AC3-EVO torrent
Shadowland.2021.HDRip.XviD.AC3-EVO torrent

ETTV Recommended HD
Tombstone (1993) [Kurt Russell] 1080p H264 DolbyD 5.1 ūüíé nickarad torrent
Escape from New York (1981) [Kurt Russell] 1080p H264 DolbyD 5.1 ūüíé nickarad torrent
A Way Station 2021 720p Korean HDRip H264 BONE torrent
Music (2021) FullHD 1080p.H264 Ita Eng AC3 5.1 Sub Ita Eng - ODS torrent

ETTV Recommended UHD
2012.2009.Multi.UHD.BluRay.2160p.HDR.HEVC.TrueHD.Atmos.7.1-DDR.mkv torrent
Master Z Ip Man Legacy 2018 4K MULTI 2160p HDR WEB AC3 HEVC-DDR.mkv torrent
Money.Monster.2016.4K.MULTI.2160p.HDR.WEB.DTS-HDMA.5.1.HEVC-DDR.mkv torrent
Superbad.2007.Theatrical.Cut.4K.MULTI.2160p.HDR.WEB.AC3.HEVC-DDR.mkv torrent
Blade.1998.4K.HDR.2160p.BDRip Ita Eng x265-NAHOM torrent
Animated.Movies.5.Pack.BDRips.2160.UHD.HDR.Eng.TrueHD.DDPlus.DD5.1.gerald99 torrent

ETTV Recommended Cam
Tom and Jerry (2021) English HDCAM x264 AAC By Full4Movies torrent
The World to Come (2021) New English HDCAM x264 AAC By Full4Movies torrent
Weekenders (2021) New English HDCAM x264 AAC By Full4Movies torrent
Long Story Short (2021) English HDCAM x264 AAC By Full4Movies torrent

ETTV Recommended Foreign
The.Mad.Monk.2021.WEB-DL.1080p.H264-Mkvking torrent
The Broken Hearts Gallery 2020 x264 720p Esub BluRay English Hindi Telugu Tamil THE GOPI SAHI torrent
Unhinged 2020 x264 720p Esub BluRay Dual Audio English Hindi THE GOPI SAHI torrent
Troop Zero 2020 x264 720p WebHD Esub Dual Audio English Hindi THE GOPI SAHI torrent
Three Sisters 2021 720p Korean HDRip H264 BONE torrent
Shock Wave 2 2020 1080p Chinese HDRip HC HEVC H265 BONE torrent

ETTV Recommended Music
Louane - Joie de vivre (2021) Mp3 320kbps [PMEDIA] ‚≠źÔłŹ torrent
Def Leppard - Deep Cuts (2021) Mp3 320kbps [PMEDIA] ‚≠źÔłŹ torrent
[country, rockabilly, soul] (2021) Tami Neilson - CHICKABOOM! [Deluxe Edition] [FLAC] [DarkAngie] torrent
[ambient, classical, electronic] (2020) Snow Palms - Land Waves [FLAC] [DarkAngie] torrent
(1991) Frank Zappa - Make A Jazz Noise Here [FLAC] [DarkAngie] torrent
Re-up (2021) Black Sabbath - Vol 4 [Super Deluxe Edition] [FLAC] [DarkAngie] torrent


Download Torrent "Your Honor (2020) 720p S-01 Ep-[01-12] HDRip [Hindi + Tamil + Telugu + Mal]..."

IMDB Details
Description:

A judge confronts his convictions when his son is involved in a hit and run that embroils an organized crime family. Facing impossible choices, he discovers how far a father will go to save his son's life.

Genre:

Crime, Drama, Thriller

Download Torrent (Magnet)
Download Torrent (File)

Seeds: 148
Leechers: 74

Uploaded by:
full4movies


Category:
TV > HD/X264/H264 (Good for larger screens)


Details
Title:Your Honor (2020) 720p S-01 Ep-[01-12] HDRip [Hindi + Tamil + Telugu + Mal]...
Description:


Visit Us = https://full4movies.xyz/



General
Complete name                  : Your Honor (2020) 720p S-01 Ep-[01-12] HDRip [Hindi + Tamil + Telugu + Mal] x264 AAC ESub By Full4Movies.mkv
Format                         : Matroska
Format version                 : Version 4
File size                      : 3.38 GiB
Duration                       : 7 h 22 min
Overall bit rate mode          : Variable
Overall bit rate               : 1 095 kb/s
Encoded date                   : UTC 2021-01-21 05:20:22
Writing application            : mkvmerge v8.0.0 ('Til The Day That I Die') 32bit
Writing library                : libebml v1.3.1 + libmatroska v1.4.2

Video
ID                             : 1
Format                         : AVC
Format/Info                    : Advanced Video Codec
Format profile¬† ¬† ¬† ¬† ¬† ¬† ¬† ¬† ¬†: [email protected]
Format settings                : CABAC / 4 Ref Frames
Format settings, CABAC         : Yes
Format settings, Reference fra : 4 frames
Codec ID                       : V_MPEG4/ISO/AVC
Duration                       : 7 h 22 min
Bit rate mode                  : Variable
Bit rate                       : 834 kb/s
Maximum bit rate               : 1 200 kb/s
Width                          : 1 280 pixels
Height                         : 720 pixels
Display aspect ratio           : 16:9
Frame rate mode                : Constant
Frame rate                     : 25.000 FPS
Color space                    : YUV
Chroma subsampling             : 4:2:0
Bit depth                      : 8 bits
Scan type                      : Progressive
Bits/(Pixel*Frame)             : 0.036
Stream size                    : 2.58 GiB (76%)
Default                        : Yes
Forced                         : No

Audio #1
ID                             : 2
Format                         : AAC LC
Format/Info                    : Advanced Audio Codec Low Complexity
Codec ID                       : A_AAC-2
Duration                       : 7 h 22 min
Bit rate                       : 64.0 kb/s
Channel(s)                     : 2 channels
Channel layout                 : L R
Sampling rate                  : 48.0 kHz
Frame rate                     : 46.875 FPS (1024 SPF)
Compression mode               : Lossy
Stream size                    : 203 MiB (6%)
Language                       : Hindi
Default                        : Yes
Forced                         : Yes

Audio #2
ID                             : 3
Format                         : AAC LC
Format/Info                    : Advanced Audio Codec Low Complexity
Codec ID                       : A_AAC-2
Duration                       : 7 h 22 min
Bit rate                       : 64.0 kb/s
Channel(s)                     : 2 channels
Channel layout                 : L R
Sampling rate                  : 48.0 kHz
Frame rate                     : 46.875 FPS (1024 SPF)
Compression mode               : Lossy
Stream size                    : 203 MiB (6%)
Language                       : Tamil
Default                        : No
Forced                         : No

Audio #3
ID                             : 4
Format                         : AAC LC
Format/Info                    : Advanced Audio Codec Low Complexity
Codec ID                       : A_AAC-2
Duration                       : 7 h 22 min
Bit rate                       : 64.0 kb/s
Channel(s)                     : 2 channels
Channel layout                 : L R
Sampling rate                  : 48.0 kHz
Frame rate                     : 46.875 FPS (1024 SPF)
Compression mode               : Lossy
Stream size                    : 203 MiB (6%)
Language                       : Telugu
Default                        : No
Forced                         : No

Audio #4
ID                             : 5
Format                         : AAC LC
Format/Info                    : Advanced Audio Codec Low Complexity
Codec ID                       : A_AAC-2
Duration                       : 7 h 22 min
Bit rate                       : 64.0 kb/s
Channel(s)                     : 2 channels
Channel layout                 : L R
Sampling rate                  : 48.0 kHz
Frame rate                     : 46.875 FPS (1024 SPF)
Compression mode               : Lossy
Stream size                    : 203 MiB (6%)
Language                       : Malayalam
Default                        : No
Forced                         : No

Text #1
ID                             : 6
Format                         : UTF-8
Codec ID                       : S_TEXT/UTF8
Codec ID/Info                  : UTF-8 Plain Text
Duration                       : 7 h 19 min
Bit rate                       : 60 b/s
Count of elements              : 5649
Stream size                    : 196 KiB (0%)
Title                          : ESub
Default                        : No
Forced                         : No

Screen Shoots




Category:TV > HD/X264/H264
Lang:Hindi  Hindi
Total Size:3.38 GB
Info Hash:d577766abe7f427847182b766e04f7215de7e1b5
Added By:full4movies
Date Added:21-01-2021 06:41:44

  

Files

File List: 
 File Size
Your Honor (2020) 720p S-01 Ep-[01-12] HDRip [Hindi + Tamil + Telugu + Mal] x264 AAC ESub By Full4Movies.mkv3.38 GB



Comments

There are currently no comments. Be the first one to write something !