Fear of Rain 2021 Tom and Jerry 2021 Coming to America 1988 Free Guy 2021 Monster Hunter 2020 ethd The Mauritanian 2021 xxx Wrong Turn 2021 For All Mankind Raya and the last dragon Chaos Walking 2021 I Care a Lot 2021 chaos walking etmovies The United States vs. Billie Holiday 2021 Magnum P.I. S03E10 ita etrg Land 2021 Hindi Superman and Lois S01E02 ufc hindi 2021 News of the World 2020 The Blacklist S08E09 Blood of Zeus s01e06 Blue Bloods S11E08 rq.mp4 malayalam  Wonder Woman 1984 2020 evo The Marksman 2021 UFC 259 ettv Coming 2 America The walking dead ddr Gold Rush S11E19 the blacklist Resident Alien S01E06 The Walking Dead S10E17 WandaVision S01E01 Boss Level 2021 A Discovery of Witches s02e09 tamil  The Walking Dead S10E18 lupin 2021 s01e04 gold rush Debris S01E01 wanda Vision Silk Road 2021 Nomadland 2020 WandaVision S01E09 Cosmic Sin 2021 Wandavision s01e08 wandavision Raya and the Last Dragon 2021 MacGyver s05e10 1 Wandavision s01e07 coming to america WandaVision s01e02 Young Sheldon S04E10 0 Judas and the Black Messiah 2021 yts Crisis 2021 The Little Things 2021 Tenet 2020 Raya Coming 2 America 2021 clarice s01e04 
Warning! Use a VPN When Downloading Torrents!
Your IP Address is 3.239.159.107. Location United States
Your Internet Provider can see when you download torrents! Hide your IP Address with a VPN
ETTV warns: You should use VPN to hide your torrenting. HIDE ME NOW
ETTV Recommended TV Shows
UFC 259 | Błachowicz vs. Adesanya | Main Event Fights | PPV 720p-BB 👊 [A1Rip] torrent
UFC 259 | Preliminary Fight | WEB-DL-BB [A1Rip] torrent
Wynonna.Earp.S04E07.720p.WEB.H264-GGEZ torrent
Magnum.P.I.2018.S03E10.720p.HDTV.x264-SYNCOPY torrent
Gold.Rush.S11E20.Attack.or.Retreat.720p.WEBRip.x264-CAFFEiNE torrent
American.Gods.S03E08.720p.WEB.H264-GGEZ torrent
Ancient.Aliens.S16E09.720p.WEB.h264-BAE torrent
Pennyworth.S02E05.720p.WEB.H264-GLHF torrent
Shameless.US.S11E07.WEBRip.x264-ION10 torrent
Harrow.S03E05.Ut.Biberent.Quoniam.Esse.Nollent.720p.WEB.h264-WEBTUBE torrent

ETTV Recommended SD
Cosmic.Sin.2021.HDRip.XviD.AC3-EVO torrent
Shadowland.2021.HDRip.XviD.AC3-EVO torrent
Coming.2.America.2021.HDRip.XviD.AC3-EVO torrent
Dreamcatcher.2021.HDRip.XviD.AC3-EVO torrent

ETTV Recommended HD
Tombstone (1993) [Kurt Russell] 1080p H264 DolbyD 5.1 💎 nickarad torrent
Escape from New York (1981) [Kurt Russell] 1080p H264 DolbyD 5.1 💎 nickarad torrent
A Way Station 2021 720p Korean HDRip H264 BONE torrent
Music (2021) FullHD 1080p.H264 Ita Eng AC3 5.1 Sub Ita Eng - ODS torrent

ETTV Recommended UHD
Master Z Ip Man Legacy 2018 4K MULTI 2160p HDR WEB AC3 HEVC-DDR.mkv torrent
Superbad.2007.Theatrical.Cut.4K.MULTI.2160p.HDR.WEB.AC3.HEVC-DDR.mkv torrent
Blade.1998.4K.HDR.2160p.BDRip Ita Eng x265-NAHOM torrent
Animated.Movies.5.Pack.BDRips.2160.UHD.HDR.Eng.TrueHD.DDPlus.DD5.1.gerald99 torrent
(REQ).The.Croods.2.&.District.9.BDRips.2160p.UHD.HDR.Eng.TrueHD.DD5.1.gerald99 torrent
Transformers.Pack.BDRips.2160p.UHD.HDR.Eng.TrueHD.DD5.1.gerald99 torrent

ETTV Recommended Cam
Tom and Jerry (2021) English HDCAM x264 AAC By Full4Movies torrent
The World to Come (2021) New English HDCAM x264 AAC By Full4Movies torrent
Weekenders (2021) New English HDCAM x264 AAC By Full4Movies torrent
Long Story Short (2021) English HDCAM x264 AAC By Full4Movies torrent

ETTV Recommended Foreign
The.Mad.Monk.2021.WEB-DL.1080p.H264-Mkvking torrent
The Broken Hearts Gallery 2020 x264 720p Esub BluRay English Hindi Telugu Tamil THE GOPI SAHI torrent
Unhinged 2020 x264 720p Esub BluRay Dual Audio English Hindi THE GOPI SAHI torrent
Troop Zero 2020 x264 720p WebHD Esub Dual Audio English Hindi THE GOPI SAHI torrent
Three Sisters 2021 720p Korean HDRip H264 BONE torrent
Shock Wave 2 2020 1080p Chinese HDRip HC HEVC H265 BONE torrent

ETTV Recommended Music
Stone Temple Pilots - Purple (1994) (DE PBTHAL LP 24-44) [FLAC] vtwin88cube torrent
Bryan Adams - Reckless (1984) (PBTHAL LP 24-96) [FLAC] vtwin88cube torrent
[ambient, indie-folk] (2021) Karima Walker - Waking the Dreaming Body [FLAC] [DarkAngie] torrent
The Official UK Top 100 Singles Chart (05-March-2021) Mp3 320kbps [PMEDIA] ⭐️ torrent
100 Tracks 80s Hits (ETTV)  Playlist Spotify Mp3~320  kbps Beats⭐ torrent
80s Summer Rock. 90 Tracks Hits (ETTV)  Playlist Spotify ~320  kbps Beats⭐ torrent


Download Torrent "Bob Dylan - Another Side Of Bob Dylan (1964) (PBTHAL LP 24-96) [FLAC] vtwin..."

IMDB Details
Description:

N/A

Genre:

N/A

Download Torrent (Magnet)
Download Torrent (File)

Seeds: 203
Leechers: 22

Uploaded by:
vtwin88cube


Category:
Music > FLAC


Details
Title:Bob Dylan - Another Side Of Bob Dylan (1964) (PBTHAL LP 24-96) [FLAC] vtwin...
Description:
Bob Dylan
Another Side Of Bob Dylan (1964)
FLAC LOSSLESS 24bit-96kHz
PBTHAL Vinyl Rip


allmusic.com...

The other side of Bob Dylan referred to in the title is presumably his romantic, absurdist, and whimsical one -- anything that wasn't featured on the staunchly folky, protest-heavy Times They Are a-Changin', really. Because of this, Another Side of Bob Dylan is a more varied record and it's more successful, too, since it captures Dylan expanding his music, turning in imaginative, poetic performances on love songs and protest tunes alike. This has an equal number of classics to its predecessor, actually, with "All I Really Want to Do," "Chimes of Freedom," "My Back Pages," "I Don't' Believe You," and "It Ain't Me Babe" standing among his standards, but the key to the record's success is the album tracks, which are graceful, poetic, and layered. Both the lyrics and music have gotten deeper and Dylan's trying more things -- this, in its construction and attitude, is hardly strictly folk, as it encompasses far more than that. The result is one of his very best records, a lovely intimate affair.


foobar2000 1.4.3 / Dynamic Range Meter 1.1.1
log date: 2020-12-02 23:20:04

--------------------------------------------------------------------------------
Analyzed: Bob Dylan / Another Side Of Bob Dylan
--------------------------------------------------------------------------------

DR         Peak         RMS     Duration Track
--------------------------------------------------------------------------------
DR11      -1.20 dB   -14.99 dB      4:06 01-All I Really Want To Do
DR10      -0.94 dB   -14.94 dB      3:18 02-Black Crow Blues
DR12      -1.28 dB   -16.05 dB      2:29 03-Spanish Harlem Incident
DR12      -0.70 dB   -15.95 dB      7:16 04-Chimes Of Freedom
DR12      -1.01 dB   -16.18 dB      4:51 05-I Shall Be Free No 10
DR12      -1.89 dB   -16.78 dB      3:54 06-To Ramona
DR12      -1.80 dB   -15.46 dB      4:36 07-Motorpsycho Nitemare
DR11      -3.25 dB   -16.14 dB      4:28 08-My Back Pages
DR12      -2.85 dB   -17.24 dB      4:27 09-I Don't Believe You
DR12      -2.71 dB   -18.69 dB      8:21 10-Ballad In Plain D
DR12      -2.47 dB   -17.50 dB      3:36 11-It Ain't Me Babe

Number of tracks:  11
Official DR value: DR12

Samplerate:        96000 Hz
Channels:          2
Bits per sample:   24
Bitrate:           2620 kbps
Codec:             FLAC





Support the artists...
buy it if you like it!

Thanks for Seeding!
Cheers! ;)
Category:Music > FLAC
Lang:English  English
Total Size:1,018 MB
Info Hash:ea1af381ce8fd1ad3eebeac4acdb67cecf2329c1
Added By:vtwin88cube
Date Added:15-01-2021 07:05:42

  

Files

File List: 
 File Size
00.-Bob Dylan - Another Side Of Bob Dylan.m3u315.00 B
01.-All I Really Want To Do.flac85 MB
02.-Black Crow Blues.flac67 MB
03.-Spanish Harlem Incident.flac50 MB
04.-Chimes Of Freedom.flac146 MB
05.-I Shall Be Free No 10.flac97 MB
06.-To Ramona.flac76 MB
07.-Motorpsycho Nitemare.flac93 MB
08.-My Back Pages.flac90 MB
09.-I Don't Believe You.flac89 MB
10.-Ballad In Plain D.flac158 MB
11.-It Ain't Me Babe.flac68 MB
DR12.txt1.44 kB
folder.jpg203.73 kB
lineage.txt429.00 B



Comments

There are currently no comments. Be the first one to write something !