malayalam  ettv servant Outside the Wire 2021 monster hunter Monster Hunter 2020 WandaVision s01e01 WandaVision  The Marksman 2021 Run Hide Fight 2020 Private Eyes S04E10 Magnum P.I. S03E06 wwe MacGyver S05E06 yts A Discovery of Witches S02E03 Young Sheldon S04E06 Gold Rush S11E13 the blacklist Last Man Standing S09E04 etmovies Legacies s03e01 Batman Soul of the Dragon 2021 hindi The White Tiger 2021 private eyes Gold Rush Synchronic 2020 Redemption Day 2021 madam chief minister ddr Mom S08E06 the white tiger  WandaVision S01E02 the stand Superstore S06E06 Greenland 2020 Tenet 2020 The Stand S01E06 master 2021 Walker S01E01 rq.mp4 Fatale 2020 ita wonder woman 1984 2020 jeet ki zid master The Croods A New Age 2020 Gold Rush White Water S04E08 Servant s02e02 Locked Down 2021 wandavision s01e03 young sheldon Promising Young Woman 2020 TANDAV Honest Thief 2020 etrg Xxx Law and Order SVU S22E06 Real Time with Bill Maher S19E02 Horizon Line 2020 hindi 2021 Hells Kitchen S19E03 Shadow in the Cloud 2020 tamil The Blacklist S08E03 Fate The Winx Saga S01E01 Soul 2020 Legacies Blue Bloods S11E05 News of the World 2020 evo ethd 
Warning! Use a VPN When Downloading Torrents!
Your IP Address is 18.204.42.98. Location United States
Your Internet Provider can see when you download torrents! Hide your IP Address with a VPN
ETTV warns: You should use VPN to hide your torrenting. HIDE ME NOW
ETTV Recommended TV Shows
WWE Friday Night SmackDown 2021 01 22 HDTV x264-Star [TJET] torrent
Blue.Bloods.S11E05.720p.HDTV.x264-SYNCOPY torrent
Gold.Rush.S11E13.Got.Your.Six.720p.WEBRip.x264-CAFFEiNE torrent
Gold.Rush.White.Water.S04E08.Dustin.to.the.Rescue.720p.WEBRip.x264-CAFFEiNE torrent
Last.Man.Standing.US.S09E04.REPACK.720p.WEB.h264-KOGi torrent
MacGyver.2016.S05E06.720p.HDTV.x264-SYNCOPY torrent
Magnum.P.I.2018.S03E06.720p.HDTV.x264-SYNCOPY torrent
The.Blacklist.S08E03.720p.HDTV.x264-SYNCOPY torrent

ETTV Recommended SD
Spiral.2020.BRRip.XviD.AC3-EVO torrent
Batman.Soul.of.the.Dragon.2021.BRRip.XviD.AC3-EVO torrent
On.Site.2020.HDRip.XviD.AC3-EVO torrent
The.White.Tiger.2021.HDRip.XviD.AC3-EVO torrent

ETTV Recommended HD
Body.of.Water.2020.HDRip.XviD.AC3-EVO torrent
Todd (2021) 720p English HDRip x264 AAC By Full4Movies torrent
Lost.Girls.and.Love.Hotels.2020.BRRip.XviD.AC3-EVO torrent
Elektra (2005) [Jennifer Garner] 1080p H264 DolbyD 5.1 ūüíé nickarad torrent

ETTV Recommended UHD
Police.2020.HDR.2160p.WEB.DDP5.1.HEVC-DDR.mkv torrent
The.Climb.2020.HDR.2160p.WEB.DDP5.1.HEVC-DDR.mkv torrent
2012.2009.Multi.UHD.BluRay.2160p.HDR.HEVC.TrueHD.Atmos.7.1-DDR.mkv torrent
Master Z Ip Man Legacy 2018 4K MULTI 2160p HDR WEB AC3 HEVC-DDR.mkv torrent
Money.Monster.2016.4K.MULTI.2160p.HDR.WEB.DTS-HDMA.5.1.HEVC-DDR.mkv torrent
Superbad.2007.Theatrical.Cut.4K.MULTI.2160p.HDR.WEB.AC3.HEVC-DDR.mkv torrent

ETTV Recommended Cam
The Rescue (2020) English HDCAM x264 AAC By Full4Movies torrent
The Father (2020) English HDCAM x264 AAC By Full4Movies torrent
One Night in Miami (2020) English HDCAM x264 AAC By Full4Movies torrent
It Snows in Benidorm (2020) 720p HDCAM [Hindi-Sub] x264 1XBET torrent

ETTV Recommended Foreign
Yu Pui Tsuen III (1996) UNRATED 720p BluRay x264 Eng Subs [Dual Audio] [Hindi DD 2.0 - Chinese 2.0] Exclusive By -=!Dr.STAR!=- torrent
Set Play 2020 720p Korean HDRip H264 BONE torrent
The.Day.I.Died.Unclosed.Case.2020.HDRip.720p.Korean.x264.AAC-Mkvking torrent
Your Honor (2020) 720p S-01 Ep-[01-12] HDRip [Hindi + Tamil + Telugu + Mal] x264 AAC ESub By Full4Movies torrent
Bending The Rules (2012) 720p BluRay x264 Eng Subs [Dual Audio] [Hindi DD 2.0 - English 5.1] Exclusive By -=!Dr.STAR!=- torrent
The Marksman (2021) English HDCAM x264 AAC By Full4Movies torrent

ETTV Recommended Music
[ambient, jazz] (2021) Patricia Brennan - Maquishti [FLAC] [DarkAngie] torrent
[psychedelic rock] (2021) Miss Lava - Doom Machine [FLAC] [DarkAngie] torrent
50 Tracks Top Female Artists of 2020 (ETTV)  Playlist Spotify ~320  kbps Beats‚≠ź torrent
50 Tracks Top Male  Artists of 2020 (ETTV)  Playlist Spotify ~320  kbps Beats‚≠ź torrent
Sam Cooke - Eight Classic Albums (4CD) (2013) [FLAC] [DJ] torrent
UB40 - Gold - 2-CD-[MP3-320]-[TFM] torrent


Download Torrent "Dakar 2021 - Stage 9 - WEB-DL Eurosport4k h265 2160p-deef"

IMDB Details
Description:

N/A

Genre:

N/A

Download Torrent (Magnet)
Download Torrent (File)

Seeds: 37
Leechers: 6

Uploaded by:
deifer


Category:
TV > Sport


Details
Title:Dakar 2021 - Stage 9 - WEB-DL Eurosport4k h265 2160p-deef
Description:
Dakar 2021 - Stage 9 - WEB-DL Eurosport4k h265 2160p-deef

Dakar Rally 2021 in 4k HEVC ripped from Eurosport website.

Includes:
Stage 9
Stage 9 Highlights

With Russian and English audio tracks.

General
Unique ID                                : 193407371907026774759500788331123017490 (0x9180E7A7A9F5A4D2598AD596EB7B8712)
Complete name                            : Dakar 2021 - Stage 9 (3564mb 3840x2160 18299kbps h265 deef).mkv
Format                                   : Matroska
Format version                           : Version 4
File size                                : 3.48 GiB
Duration                                 : 26 min 35 s
Overall bit rate                         : 18.7 Mb/s
Encoded date                             : UTC 2021-01-13 05:37:27
Writing application                      : mkvmerge v52.0.0 ('Secret For The Mad') 64-bit
Writing library                          : libebml v1.4.1 + libmatroska v1.6.2

Video
ID                                       : 1
Format                                   : HEVC
Format/Info                              : High Efficiency Video Coding
Format profile¬† ¬† ¬† ¬† ¬† ¬† ¬† ¬† ¬† ¬† ¬† ¬† ¬† ¬†: Main [email protected]@Main
Codec ID                                 : V_MPEGH/ISO/HEVC
Duration                                 : 26 min 35 s
Bit rate                                 : 18.4 Mb/s
Width                                    : 3 840 pixels
Height                                   : 2 160 pixels
Display aspect ratio                     : 16:9
Frame rate mode                          : Constant
Frame rate                               : 50.000 FPS
Standard                                 : Component
Color space                              : YUV
Chroma subsampling                       : 4:2:0
Bit depth                                : 10 bits
Bits/(Pixel*Frame)                       : 0.044
Stream size                              : 3.41 GiB (98%)
Default                                  : Yes
Forced                                   : No
Color range                              : Limited
Color primaries                          : BT.709
Transfer characteristics                 : BT.709
Matrix coefficients                      : BT.709

Audio #1
ID                                       : 2
Format                                   : MPEG Audio
Format version                           : Version 1
Format profile                           : Layer 2
Codec ID                                 : A_MPEG/L2
Codec ID/Hint                            : MP2
Duration                                 : 26 min 35 s
Bit rate mode                            : Constant
Bit rate                                 : 192 kb/s
Channel(s)                               : 2 channels
Sampling rate                            : 48.0 kHz
Frame rate                               : 41.666 FPS (1152 SPF)
Compression mode                         : Lossy
Delay relative to video                  : 8 ms
Stream size                              : 36.5 MiB (1%)
Language                                 : Russian
Default                                  : Yes
Forced                                   : No

Audio #2
ID                                       : 3
Format                                   : MPEG Audio
Format version                           : Version 1
Format profile                           : Layer 2
Codec ID                                 : A_MPEG/L2
Codec ID/Hint                            : MP2
Duration                                 : 26 min 35 s
Bit rate mode                            : Constant
Bit rate                                 : 192 kb/s
Channel(s)                               : 2 channels
Sampling rate                            : 48.0 kHz
Frame rate                               : 41.666 FPS (1152 SPF)
Compression mode                         : Lossy
Delay relative to video                  : 8 ms
Stream size                              : 36.5 MiB (1%)
Language                                 : English
Default                                  : No
Forced                                   : No
Category:TV > Sport
Lang:English  English
Total Size:3.92 GB
Info Hash:8012a97243c9a778928945d3a6478b6270f06f4a
Added By:deifer
Date Added:13-01-2021 06:20:39

  

Files

File List: 
 File Size
banner.jpg23.56 kB
cover.jpg50.91 kB
Dakar 2021 - Stage 9 (3564mb 3840x2160 18299kbps h265 deef).mkv3.48 GB
Dakar 2021 - Stage 9 Highlights (449mb 3840x2160 2836kbps h265 deef).mp4449 MB
MediaInfo.txt3.87 kB



Comments

<< Previous      Next >>
1 - 3

[Report] Posted: 13-01-2021 at 22:38:42
REB3LLION


Removed

[Report] Posted: 13-01-2021 at 22:38:56
REB3LLION


Removed

[Report] Posted: 13-01-2021 at 22:39:25
REB3LLION


Thank you so much @deifer. I've been waiting for the Dakar 2021's coverage. Your upload is so valuable and special that please let me DO appreciate it in every new stage!

1 - 3
<< Previous      Next >>