Locked Down 2021 monster hunter 2020 lupin 2021 s01e01 9-1-1 Below Deck S08E12 wandavision Tamil  Run Hide Fight 2020 Shadow in the Cloud 2020 Synchronic 2020 2160p Outside the Wire 2021 the watch 9-1-1 Lone Star S02E01 Tenet 2020 Soul 2020 master 2021 WandaVision S01E01 All American S03E01 the great indian kitchen The Croods A New Age 2020 etmovies The Stand S01E05 the good doctor News of the World 2020 Redemption Day 2021 American Gods S03E02 The Neighborhood S03E07 Wonder Woman 1984 2020 NCIS ethd Honest Thief 2020 The Watch S01E04 A Discovery of Witches s02e02 Monster Hunter ddr etrg Promising Young Woman 2020 Your Honor S01E06 Xxx rq.mp4 WWE The Rookie S03E03 NCIS Los Angeles S12E09 Fatale 2020 Tiger S01E02 batwoman evo Greenland 2020 The Good Doctor S04E07 American gods 90 Day Fiance S08E07 family guy yts Bull S05E06 ettv Family Guy S19E10 9-1-1 s04e01 hindi 2021 The Marksman 2021 tandav Your Honor S01E07 One Night in Miami... 2021 Hindi WandaVision S01E02 THE EXPANSE Horizon Line 2020 the rookie Batwoman s02e01  malayalam outside the wire master NCIS New Orleans S07E07 
Warning! Use a VPN When Downloading Torrents!
Your IP Address is 3.239.242.55. Location United States
Your Internet Provider can see when you download torrents! Hide your IP Address with a VPN
ETTV warns: You should use VPN to hide your torrenting. HIDE ME NOW
ETTV Recommended TV Shows
Hudson.and.Rex.S03E03.720p.HDTV.x264-SYNCOPY torrent
Prodigal.Son.S02E02.720p.WEB.H264-CAKES torrent
The.Curse.of.Oak.Island.S08E11.720p.HDTV.x264-SYNCOPY torrent
The.Daily.Show.2021.01.19.720p.WEB.h264-BAE torrent
The.Expanse.S05E08.WEBRip.x264-ION10 torrent
The.Resident.S04E02.720p.WEB.H264-CAKES torrent
Zoeys.Extraordinary.Playlist.S02E03.720p.HDTV.x264-SYNCOPY torrent
Stephen.Colbert.2021.01.19.Jason.Segel.720p.WEB.H264-JEBAITED torrent

ETTV Recommended SD
Outside.the.Wire.2021.HDRip.XviD.AC3-EVO torrent
The.Ultimate.Playlist.of.Noise.2021.HDRip.XviD.AC3-EVO torrent
The Burnt Orange Heresy.2020.BDRip.XviD.AC3-EVO torrent
The.Adventure.Of.A.R.I.My.Robot.Friend.2020.BDRip.XviD.AC3-EVO torrent

ETTV Recommended HD
Body.of.Water.2020.HDRip.XviD.AC3-EVO torrent
Todd (2021) 720p English HDRip x264 AAC By Full4Movies torrent
Lost.Girls.and.Love.Hotels.2020.BRRip.XviD.AC3-EVO torrent
Elektra (2005) [Jennifer Garner] 1080p H264 DolbyD 5.1 ūüíé nickarad torrent

ETTV Recommended UHD
The.Empty.Man.2021.2160p.AMZN.WEB.DDP5.1.HDR.HEVC-DDR.mkv torrent
News.of.the.World.2021.2160p.AMZN.WEB.DDP5.1.HDR.HEVC-DDR.mkv torrent
One.Night.in.Miami.2020.4K.MULTI.2160p.HDR.WEB.EAC3..5.1.HEVC§-DDR.mkv torrent
Promising.Young.Woman.2021.2160p.AMZN.WEB.DDP5.1.HDR.HEVC-DDR.mkv torrent
Clear.And.Present.Danger.1994.MULTI..2160p.HDR.BLURAY.TrueHD.5.1.HEVC-DDR.mkv torrent
Weathering With You.2019..USA.UHD.BluRay.2160p.HDR.DTS-HDMA.5.1.HEVC-DDR.mkv torrent

ETTV Recommended Cam
The Rescue (2020) English HDCAM x264 AAC By Full4Movies torrent
The Father (2020) English HDCAM x264 AAC By Full4Movies torrent
One Night in Miami (2020) English HDCAM x264 AAC By Full4Movies torrent
It Snows in Benidorm (2020) 720p HDCAM [Hindi-Sub] x264 1XBET torrent

ETTV Recommended Foreign
Back.to.the.Wharf.2020.WEBRip.x264.AAC.720p-Mkvking torrent
Jurassic Shark (2012) 720p BluRay x264 [Dual Audio] [Hindi DD 2.0 - English 5.1] Exclusive By -=!Dr.STAR!=- torrent
Express Raja (2016) HDRip UnCut 1080p [Hindi DD 2.0 ‚Äď Telugu 2.0] x264 AAC ESub By Full4Movies torrent
Yu Pui Tsuen III (1996) UNRATED 720p BluRay x264 Eng Subs [Dual Audio] [Hindi DD 2.0 - Chinese 2.0] Exclusive By -=!Dr.STAR!=- torrent
Set Play 2020 720p Korean HDRip H264 BONE torrent
The.Day.I.Died.Unclosed.Case.2020.HDRip.720p.Korean.x264.AAC-Mkvking torrent

ETTV Recommended Music
Various Artists - Gospel Blues (2021) Mp3 320kbps [PMEDIA] ‚≠źÔłŹ torrent
VA - New Music Releases Week 02 of 2021 (Mp3 320kbps Songs) [PMEDIA] ‚≠źÔłŹ torrent
[post-punk] (2020) lié - You Want It Real [FLAC] [DarkAngie] torrent
[dream-pop, synth-pop] (2020) Katya Yonder - Multiply Intentions [FLAC] [DarkAngie] torrent
VA - The Best Of Bond...James Bond (2CD) (2021) Mp3 320kbps [PMEDIA] ‚≠źÔłŹ torrent
100 Tracks Chill Vibes (ETTV)  Playlist Spotify ~320  kbps Beats‚≠ź torrent


Download Torrent "Sid and Nancy 1986 COMPLETE 1080p BDrip x265 DTS-HD MA 5.1 D0ct0rLew[SEV]"

IMDB Details
Description:

The relationship between Sid Vicious, bassist for British punk group Sex Pistols, and his girlfriend Nancy Spungen is portrayed.

Genre:

Biography, Drama, Music, Romance

Download Torrent (Magnet)
Download Torrent (File)

Seeds: 131
Leechers: 151

Uploaded by:
D0ct0rLew


Category:
Movies > HEVC/x265 (Super High Quality, Small size, high CPU usage)


Details
Title:Sid and Nancy 1986 COMPLETE 1080p BDrip x265 DTS-HD MA 5.1 D0ct0rLew[SEV]
Description:



Screenshots
Source


Encode


Media Information
General
Unique ID                                : 196908875121096078477578481173219955459 (0x9423451795D3E2BBA3A5E1DF691AD303)
Complete name                            : Sid and Nancy 1986 1080p BDrip x265 DTS-HD MA 5.1 D0ct0rLew[SEV].mkv
Format                                   : Matroska
Format version                           : Version 4
File size                                : 10.6 GiB
Duration                                 : 1 h 53 min
Overall bit rate mode                    : Variable
Overall bit rate                         : 13.3 Mb/s
Movie name                               : Sid and Nancy 1986 1080p BDrip x265 DTS-HD MA 5.1 D0ct0rLew[SEV]
Encoded date                             : UTC 2021-01-11 04:37:42
Writing application                      : mkvmerge v17.0.0 ('Be Ur Friend') 64-bit
Writing library                          : libebml v1.3.5 + libmatroska v1.4.8
Attachments                              : StintUltraCondensed-lL0e.ttf

Video
ID                                       : 1
Format                                   : HEVC
Format/Info                              : High Efficiency Video Coding
Format profile¬†¬†¬†¬†¬†¬†¬†¬†¬†¬†¬†¬†¬†¬†¬†¬†¬†¬†¬†¬†¬†¬†¬†¬†¬†¬† : Main [email protected]@Main
Codec ID                                 : V_MPEGH/ISO/HEVC
Duration                                 : 1 h 53 min
Bit rate                                 : 9 244 kb/s
Width                                    : 1 920 pixels
Height                                   : 1 080 pixels
Display aspect ratio                     : 16:9
Frame rate mode                          : Constant
Frame rate                               : 23.976 (23976/1000) FPS
Color space                              : YUV
Chroma subsampling                       : 4:2:0
Bit depth                                : 10 bits
Bits/(Pixel*Frame)                       : 0.186
Stream size                              : 7.33 GiB (69%)
Writing library                          : x265M - 3.4+28-419182243:[Windows][GCC 10.2.0][64 bit] 10bit
Encoding settings                        : cpuid=1111039 / frame-threads=4 / numa-pools=24 / wpp / no-pmode / no-pme / no-psnr / no-ssim / log-level=2 / input-csp=1 / input-res=1920x1080 / interlace=0 / total-frames=54451 / level-idc=0 / high-tier=1 / uhd-bd=0 / ref=5 / no-allow-non-conformance / no-repeat-headers / annexb / no-aud / no-hrd / info / hash=0 / no-temporal-layers / open-gop / min-keyint=23 / keyint=250 / gop-lookahead=0 / bframes=16 / b-adapt=2 / b-pyramid / bframe-bias=0 / rc-lookahead=90 / lookahead-slices=0 / scenecut=40 / hist-scenecut=0 / radl=0 / no-splice / no-intra-refresh / ctu=64 / min-cu-size=8 / no-rect / no-amp / max-tu-size=32 / tu-inter-depth=4 / tu-intra-depth=4 / limit-tu=4 / rdoq-level=2 / dynamic-rd=0.00 / no-ssim-rd / signhide / no-tskip / nr-intra=0 / nr-inter=0 / no-constrained-intra / no-strong-intra-smoothing / max-merge=5 / limit-refs=0 / limit-modes / me=3 / subme=7 / merange=92 / temporal-mvp / no-frame-dup / no-hme / weightp / weightb / no-analyze-src-pics / deblock=0:0 / sao / no-sao-non-deblock / rd=4 / selective-sao=4 / no-early-skip / rskip / no-fast-intra / no-tskip-fast / no-cu-lossless / b-intra / no-splitrd-skip / rdpenalty=0 / psy-rd=1.30 / psy-rdoq=1.00 / no-rd-refine / no-lossless / cbqpoffs=0 / crqpoffs=0 / rc=crf / crf=16.0 / qcomp=0.60 / qpstep=4 / stats-write=0 / stats-read=0 / ipratio=1.40 / pbratio=1.30 / aq-mode=4 / aq-strength=1.00 / cutree / zone-count=0 / no-strict-cbr / qg-size=32 / no-rc-grain / qpmax=69 / qpmin=0 / no-const-vbv / sar=0 / overscan=0 / videoformat=5 / range=0 / colorprim=2 / transfer=2 / colormatrix=2 / chromaloc=0 / display-window=0 / cll=0,0 / min-luma=0 / max-luma=1023 / log2-max-poc-lsb=8 / vui-timing-info / vui-hrd-info / slices=1 / no-opt-qp-pps / no-opt-ref-list-length-pps / no-multi-pass-opt-rps / scenecut-bias=0.05 / hist-threshold=0.03 / no-opt-cu-delta-qp / no-aq-motion / no-hdr10 / no-hdr10-opt / no-dhdr10-opt / no-idr-recovery-sei / analysis-reuse-level=0 / analysis-save-reuse-level=0 / analysis-load-reuse-level=0 / scale-factor=0 / refine-intra=0 / refine-inter=0 / refine-mv=1 / refine-ctu-distortion=0 / no-limit-sao / ctu-info=0 / no-lowpass-dct / refine-analysis-type=0 / copy-pic=1 / max-ausize-factor=1.0 / no-dynamic-refine / no-single-sei / no-hevc-aq / no-svt / no-field / qp-adaptation-range=1.00 / no-scenecut-aware-qpconformance-window-offsets / right=0 / bottom=0 / decoder-max-rate=0 / no-vbv-live-multi-pass
Language                                 : English
Default                                  : Yes
Forced                                   : No

Audio #1
ID                                       : 2
Format                                   : DTS XLL
Format/Info                              : Digital Theater Systems
Commercial name                          : DTS-HD Master Audio
Codec ID                                 : A_DTS
Duration                                 : 1 h 53 min
Bit rate mode                            : Variable
Bit rate                                 : 3 689 kb/s
Channel(s)                               : 6 channels
Channel layout                           : C L R Ls Rs LFE
Sampling rate                            : 48.0 kHz
Frame rate                               : 93.750 FPS (512 SPF)
Bit depth                                : 24 bits
Compression mode                         : Lossless
Stream size                              : 2.93 GiB (28%)
Title                                    : Surround 5.1
Language                                 : English
Default                                  : No
Forced                                   : No

Audio #2
ID                                       : 3
Format                                   : AC-3
Format/Info                              : Audio Coding 3
Commercial name                          : Dolby Digital
Codec ID                                 : A_AC3
Duration                                 : 1 h 53 min
Bit rate mode                            : Constant
Bit rate                                 : 192 kb/s
Channel(s)                               : 1 channel
Channel layout                           : C
Sampling rate                            : 48.0 kHz
Frame rate                               : 31.250 FPS (1536 SPF)
Compression mode                         : Lossy
Stream size                              : 156 MiB (1%)
Title                                    : Commentary with Abbe Wool, Gary Oldman, Choe Webb, Greil Marcus,  Julien Temple Lech Kowalski,Eliot Kidd
Language                                 : English
Service kind                             : Complete Main
Default                                  : No
Forced                                   : No

Audio #3
ID                                       : 4
Format                                   : AC-3
Format/Info                              : Audio Coding 3
Commercial name                          : Dolby Digital
Codec ID                                 : A_AC3
Duration                                 : 1 h 53 min
Bit rate mode                            : Constant
Bit rate                                 : 192 kb/s
Channel(s)                               : 1 channel
Channel layout                           : C
Sampling rate                            : 48.0 kHz
Frame rate                               : 31.250 FPS (1536 SPF)
Compression mode                         : Lossy
Stream size                              : 156 MiB (1%)
Title                                    : Commentary with Alex Cox and Andrew Schofield
Language                                 : English
Service kind                             : Complete Main
Default                                  : No
Forced                                   : No

Text #1
ID                                       : 5
Format                                   : ASS
Codec ID                                 : S_TEXT/ASS
Codec ID/Info                            : Advanced Sub Station Alpha
Duration                                 : 1 h 53 min
Bit rate                                 : 116 b/s
Count of elements                        : 1857
Compression mode                         : Lossless
Stream size                              : 96.4 KiB (0%)
Language                                 : English
Default                                  : Yes
Forced                                   : No

Text #2
ID                                       : 6
Format                                   : VobSub
Muxing mode                              : zlib
Codec ID                                 : S_VOBSUB
Codec ID/Info                            : Picture based subtitle format used on DVDs
Duration                                 : 1 h 47 min
Bit rate                                 : 1 215 b/s
Count of elements                        : 1098
Stream size                              : 956 KiB (0%)
Language                                 : Chinese
Default                                  : No
Forced                                   : No

Text #3
ID                                       : 7
Format                                   : VobSub
Muxing mode                              : zlib
Codec ID                                 : S_VOBSUB
Codec ID/Info                            : Picture based subtitle format used on DVDs
Duration                                 : 1 h 47 min
Bit rate                                 : 1 226 b/s
Count of elements                        : 1098
Stream size                              : 964 KiB (0%)
Language                                 : Chinese
Default                                  : No
Forced                                   : No

Menu
00:00:00.000                             : en:Chapter 01
00:04:23.012                             : en:Chapter 02
00:07:08.803                             : en:Chapter 03
00:10:16.032                             : en:Chapter 04
00:16:21.355                             : en:Chapter 05
00:22:10.996                             : en:Chapter 06
00:25:29.736                             : en:Chapter 07
00:29:26.014                             : en:Chapter 08
00:33:14.909                             : en:Chapter 09
00:35:53.484                             : en:Chapter 10
00:41:50.966                             : en:Chapter 11
00:45:50.414                             : en:Chapter 12
00:49:49.236                             : en:Chapter 13
00:56:15.246                             : en:Chapter 14
01:01:44.617                             : en:Chapter 15
01:04:59.353                             : en:Chapter 16
01:08:38.447                             : en:Chapter 17
01:14:06.859                             : en:Chapter 18
01:18:21.988                             : en:Chapter 19
01:21:19.833                             : en:Chapter 20
01:26:58.254                             : en:Chapter 21
01:30:09.654                             : en:Chapter 22
01:35:27.138                             : en:Chapter 23
01:42:27.516                             : en:Chapter 24

Source Media Information

General
Unique ID                                : 170500505655304292197146094143201593460 (0x804533F3B5CB904CDC900F102BBFC874)
Complete name¬†¬†¬†¬†¬†¬†¬†¬†¬†¬†¬†¬†¬†¬†¬†¬†¬†¬†¬†¬†¬†¬†¬†¬†¬†¬†¬† : Sid.and.Nan[email protected]HDHome SID AND NANCY_t00.mkv
Format                                   : Matroska
Format version                           : Version 2
File size                                : 31.8 GiB
Duration                                 : 1 h 53 min
Overall bit rate mode                    : Variable
Overall bit rate                         : 40.1 Mb/s
Movie name                               : SID AND NANCY
Encoded date                             : UTC 2020-12-31 06:10:11
Writing application                      : MakeMKV v1.15.3 win(x64-release)
Writing library                          : libmakemkv v1.15.3 (1.3.10/1.5.2) win(x64-release)

Video
ID                                       : 1
ID in the original source medium         : 4113 (0x1011)
Format                                   : AVC
Format/Info                              : Advanced Video Codec
Format profile¬†¬†¬†¬†¬†¬†¬†¬†¬†¬†¬†¬†¬†¬†¬†¬†¬†¬†¬†¬†¬†¬†¬†¬†¬†¬† : [email protected]
Format settings                          : CABAC / 4 Ref Frames
Format settings, CABAC                   : Yes
Format settings, Reference frames        : 4 frames
Codec ID                                 : V_MPEG4/ISO/AVC
Duration                                 : 1 h 53 min
Bit rate mode                            : Variable
Bit rate                                 : 32.1 Mb/s
Maximum bit rate                         : 37.0 Mb/s
Width                                    : 1 920 pixels
Height                                   : 1 080 pixels
Display aspect ratio                     : 16:9
Frame rate mode                          : Constant
Frame rate                               : 23.976 (24000/1001) FPS
Color space                              : YUV
Chroma subsampling                       : 4:2:0
Bit depth                                : 8 bits
Scan type                                : Progressive
Bits/(Pixel*Frame)                       : 0.646
Stream size                              : 25.5 GiB (80%)
Language                                 : English
Default                                  : No
Forced                                   : No
Original source medium                   : Blu-ray

Audio #1
ID                                       : 2
ID in the original source medium         : 4352 (0x1100)
Format                                   : PCM
Format settings                          : Little / Signed
Codec ID                                 : A_PCM/INT/LIT
Duration                                 : 1 h 53 min
Bit rate mode                            : Constant
Bit rate                                 : 2 304 kb/s
Channel(s)                               : 2 channels
Sampling rate                            : 48.0 kHz
Frame rate                               : 30.000 FPS (1600 SPF)
Bit depth                                : 24 bits
Stream size                              : 1.83 GiB (6%)
Title                                    : Stereo
Language                                 : English
Default                                  : Yes
Forced                                   : No
Original source medium                   : Blu-ray

Audio #2
ID                                       : 3
ID in the original source medium         : 4353 (0x1101)
Format                                   : DTS XLL
Format/Info                              : Digital Theater Systems
Commercial name                          : DTS-HD Master Audio
Codec ID                                 : A_DTS
Duration                                 : 1 h 53 min
Bit rate mode                            : Variable
Bit rate                                 : 3 689 kb/s
Channel(s)                               : 6 channels
Channel layout                           : C L R Ls Rs LFE
Sampling rate                            : 48.0 kHz
Frame rate                               : 93.750 FPS (512 SPF)
Bit depth                                : 24 bits
Compression mode                         : Lossless
Stream size                              : 2.93 GiB (9%)
Title                                    : Surround 5.1
Language                                 : English
Default                                  : No
Forced                                   : No
Original source medium                   : Blu-ray

Audio #3
ID                                       : 4
ID in the original source medium         : 4353 (0x1101)
Format                                   : DTS
Format/Info                              : Digital Theater Systems
Codec ID                                 : A_DTS
Duration                                 : 1 h 53 min
Bit rate mode                            : Constant
Bit rate                                 : 1 509 kb/s
Channel(s)                               : 6 channels
Channel layout                           : C L R Ls Rs LFE
Sampling rate                            : 48.0 kHz
Frame rate                               : 93.750 FPS (512 SPF)
Bit depth                                : 24 bits
Compression mode                         : Lossy
Stream size                              : 1.20 GiB (4%)
Title                                    : Surround 5.1
Language                                 : English
Default                                  : No
Forced                                   : No
Original source medium                   : Blu-ray

Audio #4
ID                                       : 5
ID in the original source medium         : 4354 (0x1102)
Format                                   : AC-3
Format/Info                              : Audio Coding 3
Commercial name                          : Dolby Digital
Codec ID                                 : A_AC3
Duration                                 : 1 h 53 min
Bit rate mode                            : Constant
Bit rate                                 : 192 kb/s
Channel(s)                               : 1 channel
Channel layout                           : C
Sampling rate                            : 48.0 kHz
Frame rate                               : 31.250 FPS (1536 SPF)
Compression mode                         : Lossy
Stream size                              : 156 MiB (0%)
Title                                    : Mono
Language                                 : English
Service kind                             : Complete Main
Default                                  : No
Forced                                   : No
Original source medium                   : Blu-ray

Audio #5
ID                                       : 6
ID in the original source medium         : 4355 (0x1103)
Format                                   : AC-3
Format/Info                              : Audio Coding 3
Commercial name                          : Dolby Digital
Codec ID                                 : A_AC3
Duration                                 : 1 h 53 min
Bit rate mode                            : Constant
Bit rate                                 : 192 kb/s
Channel(s)                               : 1 channel
Channel layout                           : C
Sampling rate                            : 48.0 kHz
Frame rate                               : 31.250 FPS (1536 SPF)
Compression mode                         : Lossy
Stream size                              : 156 MiB (0%)
Title                                    : Mono
Language                                 : English
Service kind                             : Complete Main
Default                                  : No
Forced                                   : No
Original source medium                   : Blu-ray

Text #1
ID                                       : 7
ID in the original source medium         : 4608 (0x1200)
Format                                   : PGS
Codec ID                                 : S_HDMV/PGS
Codec ID/Info                            : Picture based subtitle format used on BDs/HD-DVDs
Duration                                 : 1 h 53 min
Bit rate                                 : 55.3 kb/s
Count of elements                        : 3441
Stream size                              : 44.8 MiB (0%)
Language                                 : English
Default                                  : No
Forced                                   : No
Original source medium                   : Blu-ray

Text #2
ID                                       : 9
ID in the original source medium         : 4609 (0x1201)
Format                                   : PGS
Codec ID                                 : S_HDMV/PGS
Codec ID/Info                            : Picture based subtitle format used on BDs/HD-DVDs
Duration                                 : 1 h 47 min
Bit rate                                 : 25.5 kb/s
Count of elements                        : 2191
Stream size                              : 19.6 MiB (0%)
Language                                 : Chinese
Default                                  : No
Forced                                   : No
Original source medium                   : Blu-ray

Text #3
ID                                       : 11
ID in the original source medium         : 4610 (0x1202)
Format                                   : PGS
Codec ID                                 : S_HDMV/PGS
Codec ID/Info                            : Picture based subtitle format used on BDs/HD-DVDs
Duration                                 : 1 h 47 min
Bit rate                                 : 25.9 kb/s
Count of elements                        : 2191
Stream size                              : 19.9 MiB (0%)
Language                                 : Chinese
Default                                  : No
Forced                                   : No
Original source medium                   : Blu-ray

Menu
00:00:00.000                             : en:Chapter 01
00:04:23.012                             : en:Chapter 02
00:07:08.803                             : en:Chapter 03
00:10:16.032                             : en:Chapter 04
00:16:21.355                             : en:Chapter 05
00:22:10.996                             : en:Chapter 06
00:25:29.736                             : en:Chapter 07
00:29:26.014                             : en:Chapter 08
00:33:14.909                             : en:Chapter 09
00:35:53.484                             : en:Chapter 10
00:41:50.966                             : en:Chapter 11
00:45:50.414                             : en:Chapter 12
00:49:49.236                             : en:Chapter 13
00:56:15.246                             : en:Chapter 14
01:01:44.617                             : en:Chapter 15
01:04:59.353                             : en:Chapter 16
01:08:38.447                             : en:Chapter 17
01:14:06.859                             : en:Chapter 18
01:18:21.988                             : en:Chapter 19
01:21:19.833                             : en:Chapter 20
01:26:58.254                             : en:Chapter 21
01:30:09.654                             : en:Chapter 22
01:35:27.138                             : en:Chapter 23
01:42:27.516                             : en:Chapter 24

We have no issue with individuals posting or re-uploading our torrents on a platform we aren't on. However, if this is something you'd like to do, please do so in a 'as-is' format. We ask that you do not create a new torrent, include all descriptions you see above including the SEV logo, tags, notes and screenshots. If you'd like to become a permanent poster on a website we don't post to, feel free to get in contact with a Sublime Encoded Video  member.


We are recruiting/training new members for SEV & seedbox providers as well as people to help out with subtitles.
As you already know, we deliver quality, so you know the standard.
If you're interested, feel free to contact any of the team members.


Category:Movies > HEVC/x265
Lang:English  English
Total Size:16.81 GB
Info Hash:6090d45bf2bf1a4ad0bfb48f089f3aac890c3866
Added By:D0ct0rLew
Date Added:12-01-2021 16:36:26

  

Files

File List: 
 File Size
Contact SEV.txt1.03 kB
Extras for Sid and Nancy1986/Alex Cox 1080p BDrip x265 DD 1.0 D0ct0rLew[SEV].mkv1.48 GB
Extras for Sid and Nancy1986/Bill Grundy 1080p BDrip x265 DD 1.0 D0ct0rLew[SEV].mkv193 MB
Extras for Sid and Nancy1986/D.O.A.- A Rite of Passage 1080p BDrip x265 DD 1.0 D0ct0rLew[SEV].mkv645 MB
Extras for Sid and Nancy1986/England's Glory 1080p BDrip x265 DD 1.0 D0ct0rLew[SEV].mkv1.97 GB
Extras for Sid and Nancy1986/Sad Vacation1080p BDrip x265 DD 1.0 D0ct0rLew[SEV].mkv808 MB
Extras for Sid and Nancy1986/Sid and Nancy 1986 Theatrical Trailer 1080p BDrip x265 DD 2.0 D0ct0rLew[SEV].mkv180 MB
Extras for Sid and Nancy1986/Sid Vicious 1978 1080p BDrip x265 DD 1.0 D0ct0rLew[SEV].mkv175 MB
Extras for Sid and Nancy1986/The London Weekend Show 1080p BDrip x265 DD 1.0 D0ct0rLew[SEV].mkv862 MB
Sid and Nancy 1986 1080p BDrip x265 DTS-HD MA 5.1 D0ct0rLew[SEV].mkv10.57 GB



Comments

There are currently no comments. Be the first one to write something !