Locked Down 2021 monster hunter 2020 lupin 2021 s01e01 9-1-1 Below Deck S08E12 wandavision Tamil  Run Hide Fight 2020 Shadow in the Cloud 2020 Synchronic 2020 2160p Outside the Wire 2021 the watch 9-1-1 Lone Star S02E01 Tenet 2020 Soul 2020 master 2021 WandaVision S01E01 All American S03E01 the great indian kitchen The Croods A New Age 2020 etmovies The Stand S01E05 the good doctor News of the World 2020 Redemption Day 2021 American Gods S03E02 The Neighborhood S03E07 Wonder Woman 1984 2020 NCIS ethd Honest Thief 2020 The Watch S01E04 A Discovery of Witches s02e02 Monster Hunter ddr etrg Promising Young Woman 2020 Your Honor S01E06 Xxx rq.mp4 WWE The Rookie S03E03 NCIS Los Angeles S12E09 Fatale 2020 Tiger S01E02 batwoman evo Greenland 2020 The Good Doctor S04E07 American gods 90 Day Fiance S08E07 family guy yts Bull S05E06 ettv Family Guy S19E10 9-1-1 s04e01 hindi 2021 The Marksman 2021 tandav Your Honor S01E07 One Night in Miami... 2021 Hindi WandaVision S01E02 THE EXPANSE Horizon Line 2020 the rookie Batwoman s02e01  malayalam outside the wire master NCIS New Orleans S07E07 
Warning! Use a VPN When Downloading Torrents!
Your IP Address is 3.239.242.55. Location United States
Your Internet Provider can see when you download torrents! Hide your IP Address with a VPN
ETTV warns: You should use VPN to hide your torrenting. HIDE ME NOW
ETTV Recommended TV Shows
Hudson.and.Rex.S03E03.720p.HDTV.x264-SYNCOPY torrent
Prodigal.Son.S02E02.720p.WEB.H264-CAKES torrent
The.Curse.of.Oak.Island.S08E11.720p.HDTV.x264-SYNCOPY torrent
The.Daily.Show.2021.01.19.720p.WEB.h264-BAE torrent
The.Expanse.S05E08.WEBRip.x264-ION10 torrent
The.Resident.S04E02.720p.WEB.H264-CAKES torrent
Zoeys.Extraordinary.Playlist.S02E03.720p.HDTV.x264-SYNCOPY torrent
Stephen.Colbert.2021.01.19.Jason.Segel.720p.WEB.H264-JEBAITED torrent

ETTV Recommended SD
Outside.the.Wire.2021.HDRip.XviD.AC3-EVO torrent
The.Ultimate.Playlist.of.Noise.2021.HDRip.XviD.AC3-EVO torrent
The Burnt Orange Heresy.2020.BDRip.XviD.AC3-EVO torrent
The.Adventure.Of.A.R.I.My.Robot.Friend.2020.BDRip.XviD.AC3-EVO torrent

ETTV Recommended HD
Body.of.Water.2020.HDRip.XviD.AC3-EVO torrent
Todd (2021) 720p English HDRip x264 AAC By Full4Movies torrent
Lost.Girls.and.Love.Hotels.2020.BRRip.XviD.AC3-EVO torrent
Elektra (2005) [Jennifer Garner] 1080p H264 DolbyD 5.1 ūüíé nickarad torrent

ETTV Recommended UHD
Weathering With You.2019..USA.UHD.BluRay.2160p.HDR.DTS-HDMA.5.1.HEVC-DDR.mkv torrent
Once.Upon.a.Snowman.2020.HDR.2160p.WEB.DDP.5.1.HEVC-DDR.mkv torrent
Penguins.Life.on.the.Edge.2020.HDR.2160p.WEB.DDP.5.1.HEVC-DDR.mkv torrent
Police.2020.HDR.2160p.WEB.DDP5.1.HEVC-DDR.mkv torrent
The.Climb.2020.HDR.2160p.WEB.DDP5.1.HEVC-DDR.mkv torrent
2012.2009.Multi.UHD.BluRay.2160p.HDR.HEVC.TrueHD.Atmos.7.1-DDR.mkv torrent

ETTV Recommended Cam
The Rescue (2020) English HDCAM x264 AAC By Full4Movies torrent
The Father (2020) English HDCAM x264 AAC By Full4Movies torrent
One Night in Miami (2020) English HDCAM x264 AAC By Full4Movies torrent
It Snows in Benidorm (2020) 720p HDCAM [Hindi-Sub] x264 1XBET torrent

ETTV Recommended Foreign
Back.to.the.Wharf.2020.WEBRip.x264.AAC.720p-Mkvking torrent
Jurassic Shark (2012) 720p BluRay x264 [Dual Audio] [Hindi DD 2.0 - English 5.1] Exclusive By -=!Dr.STAR!=- torrent
Express Raja (2016) HDRip UnCut 1080p [Hindi DD 2.0 ‚Äď Telugu 2.0] x264 AAC ESub By Full4Movies torrent
Yu Pui Tsuen III (1996) UNRATED 720p BluRay x264 Eng Subs [Dual Audio] [Hindi DD 2.0 - Chinese 2.0] Exclusive By -=!Dr.STAR!=- torrent
Set Play 2020 720p Korean HDRip H264 BONE torrent
The.Day.I.Died.Unclosed.Case.2020.HDRip.720p.Korean.x264.AAC-Mkvking torrent

ETTV Recommended Music
Various Artists - Gospel Blues (2021) Mp3 320kbps [PMEDIA] ‚≠źÔłŹ torrent
VA - New Music Releases Week 02 of 2021 (Mp3 320kbps Songs) [PMEDIA] ‚≠źÔłŹ torrent
[post-punk] (2020) lié - You Want It Real [FLAC] [DarkAngie] torrent
[dream-pop, synth-pop] (2020) Katya Yonder - Multiply Intentions [FLAC] [DarkAngie] torrent
VA - The Best Of Bond...James Bond (2CD) (2021) Mp3 320kbps [PMEDIA] ‚≠źÔłŹ torrent
100 Tracks Chill Vibes (ETTV)  Playlist Spotify ~320  kbps Beats‚≠ź torrent


Download Torrent "Johnny Mnemonic (1995) 720p Ac3 5.1 Ita Eng Sub NUIta Eng-MIRCrew"

IMDB Details
Description:

A data courier, literally carrying a data package inside his head, must deliver it before he dies from the burden or is killed by the Yakuza.

Genre:

Action, Drama, Sci-Fi, Thriller

Download Torrent (Magnet)
Download Torrent (File)

Seeds: 162
Leechers: 103

Uploaded by:
robbyrs


Category:
Movies > HD 1080p (Great for large screens)


Details
Title:Johnny Mnemonic (1995) 720p Ac3 5.1 Ita Eng Sub NUIta Eng-MIRCrew
Description:
Johnny Mnemonic (1995) 720p Ac3 5.1 Ita Eng Sub NUIta Eng-MIRCrew


NO FOUND ONLY ORIGINAL RELEASE

SOTTOTITOLI ITALIANI PER NON UDENTI INCLUSI


My release is always in double track audio italian and Original audio
for select it use VLC or dvd player home
not use wmp


Johnny Mnemonic (1995)

Quality MIRCrew on HD 720p da 1,8 gb



 






Johnny Mnemonic √® un film di fantascienza del 1995 per la regia di Robert Longo, con Keanu Reeves. √ą liberamente tratto dal racconto Johnny Mnemonico di William Gibson (raccolto in La notte che bruciammo Chrome).

 

Titolo originale: Johnny Mnemonic
Paese: Usa
Anno: 1995
Durata: 96'
Genere: fantascienza
Regia: Robert Longo
Soggetto: William Gibson (racconto)
Sceneggiatura: William Gibson
Fotografia: François Protat
Montaggio: Ronald Sanders
Effetti speciali: Rory Cutler
Scenografia: Nilo Rodis-Jamero



* Keanu Reeves: Johnny Mnemonic
* Dina Meyer: Jane
* Ice-T: J-Bone
* Takeshi Kitano: Takahashi
* Dennis Akayama: Shinji
* Dolph Lundgren: Predicatore di strada
* Henry Rollins: Spider
* Barbara Sukowa: Anna Kalmann
* Udo Kier: Ralfi
* Tracy Tweed: Pretty
* Falconer Abraham: Yomamma
* Don Francks: Hooky
* Diego Chambers: Henson




Anno 2021. Johnny è un ricordante, un corriere-dati che è stato ingaggiato, tramite il malvivente Ralfi che gli ha proposto un affare, per trasportare software illegale senza fare domande, in una bolla di memoria inserita chirurgicamente nel proprio cervello, la cui installazione gli ha inoltre provocato la perdita di gran parte dei propri ricordi passati (in particolare l'infanzia) e che ora vorrebbe rimuovere per ricordare di nuovo



In 2021, the whole world is connected by the gigantic Internet, and almost a half of the population is suffering from the Nerve Attenuation Syndrome (NAS).Johnny with an inplanted memory chip in his brain was ordered to transport the over loaded information from Beijing to Newark. While Pharmakom Industries supported by yakuza tries to capture him to get the informaiton back, the Low-tech group led by J-Bone tries to break the missing code to download the cure of NAS which Johnny carries..

   






[spoiler]General

Complete name                            : Johnny Mnemonic (1995) 720p Ac3 5.1 Ita Eng Sub NUIta Eng-MIRCrew\Johnny Mnemonic (1995) 720p Ac3 5.1 Ita Eng Sub NUIta Eng-MIRCrew.mkv
Format                                   : Matroska
Format version                           : Version 2
File size                                : 1.87 GiB
Duration                                 : 1h 32mn
Overall bit rate                         : 2 895 Kbps
Movie name                               : MIRCrew
Encoded date                             : UTC 2008-03-01 16:43:35
Writing application                      : mkvmerge v5.8.0 ('No Sleep / Pillow') built on Sep  2 2012 15:37:04
Writing library                          : Lavf54.63.100
COMMENT                                  : MIRCrew

Video
ID                                       : 1
Format                                   : AVC
Format/Info                              : Advanced Video Codec
Format profile¬†¬†¬†¬†¬†¬†¬†¬†¬†¬†¬†¬†¬†¬†¬†¬†¬†¬†¬†¬†¬†¬†¬†¬†¬†¬† : [email protected]
Format settings, CABAC                   : Yes
Format settings, ReFrames                : 2 frames
Codec ID                                 : V_MPEG4/ISO/AVC
Duration                                 : 1h 32mn
Bit rate                                 : 2 000 Kbps
Width                                    : 1 280 pixels
Height                                   : 720 pixels
Display aspect ratio                     : 16:9
Frame rate mode                          : Variable
Frame rate                               : 25.000 fps
Color space                              : YUV
Chroma subsampling                       : 4:2:0
Bit depth                                : 8 bits
Scan type                                : Progressive
Bits/(Pixel*Frame)                       : 0.087
Stream size                              : 1.26 GiB (67%)
Title                                    : MIRCrew
Writing library                          : x264 core 130 r2273
Encoding settings                        : cabac=1 / ref=2 / deblock=1:-1:-1 / analyse=0x1:0x131 / me=hex / subme=7 / psy=1 / psy_rd=1.00:0.10 / mixed_ref=0 / me_range=16 / chroma_me=1 / trellis=1 / 8x8dct=0 / cqm=0 / deadzone=21,11 / fast_pskip=1 / chroma_qp_offset=-3 / threads=9 / lookahead_threads=1 / sliced_threads=0 / nr=0 / decimate=1 / interlaced=0 / bluray_compat=0 / constrained_intra=0 / bframes=3 / b_pyramid=0 / b_adapt=1 / b_bias=0 / direct=3 / weightb=1 / open_gop=0 / weightp=2 / keyint=250 / keyint_min=25 / scenecut=40 / intra_refresh=0 / rc_lookahead=40 / rc=abr / mbtree=1 / bitrate=2000 / ratetol=1.0 / qcomp=0.60 / qpmin=10 / qpmax=69 / qpstep=4 / vbv_maxrate=24000 / vbv_bufsize=24000 / nal_hrd=none / ip_ratio=1.40 / aq=1:1.00
Language                                 : Italian
Default                                  : Yes
Forced                                   : No

Audio #1
ID                                       : 2
Format                                   : AC-3
Format/Info                              : Audio Coding 3
Mode extension                           : CM (complete main)
Codec ID                                 : A_AC3
Duration                                 : 1h 32mn
Bit rate mode                            : Constant
Bit rate                                 : 448 Kbps
Channel(s)                               : 6 channels
Channel positions                        : Front: L C R, Side: L R, LFE
Sampling rate                            : 48.0 KHz
Bit depth                                : 16 bits
Compression mode                         : Lossy
Delay relative to video                  : -5ms
Stream size                              : 297 MiB (15%)
Title                                    : Ita Ac3 5.1
Language                                 : Italian
Default                                  : Yes
Forced                                   : No

Audio #2
ID                                       : 3
Format                                   : AC-3
Format/Info                              : Audio Coding 3
Mode extension                           : CM (complete main)
Codec ID                                 : A_AC3
Duration                                 : 1h 32mn
Bit rate mode                            : Constant
Bit rate                                 : 448 Kbps
Channel(s)                               : 6 channels
Channel positions                        : Front: L C R, Side: L R, LFE
Sampling rate                            : 48.0 KHz
Bit depth                                : 16 bits
Compression mode                         : Lossy
Delay relative to video                  : -5ms
Stream size                              : 297 MiB (15%)
Title                                    : Eng Ac3 5.1
Language                                 : English
Default                                  : No
Forced                                   : No


[/spoiler]






[left]What do you want to do ?[/left]
New mail

Copy

Category:Movies > HD 1080p
Lang:Italian  Italian
Total Size:1.88 GB
Info Hash:df0c9ee4a40d9ab5459ba93dc7d10c963acd5aae
Added By:robbyrs
Date Added:12-01-2021 16:22:58

  

Files

File List: 
 File Size
Johnny Mnemonic (1995) 720p Ac3 5.1 Ita Eng Sub NUIta Eng-MIRCrew.eng.srt60.20 kB
Johnny Mnemonic (1995) 720p Ac3 5.1 Ita Eng Sub NUIta Eng-MIRCrew.mkv1.87 GB
Johnny Mnemonic (1995) 720p Ac3 5.1 Ita Eng Sub NUIta Eng-MIRCrew.srt56.26 kB



Comments

There are currently no comments. Be the first one to write something !