Jumanji Level One 2021 the croods a new age 2020 The Stand S01E06 Locked Down 2021 Horizon Line 2020 yts Monster Hunter 2020 90 Day Fiance S08E08 Charmed S03E01 Blue Bloods S11E05 Walker S01E01 Gold Rush S11E13 Honest Thief 2020 WandaVision S01E03 Greenland 2020 Tamil  Fatale 2020 The Rookie S03E04 ufc Your Honor S01E08 wandavision ufc 257 ddr batwoman hindi FBI S03E04 2160p Redemption Day 2021 news of the world 2020 wwe The Little Things 2021 american gods hindi 2021 Master 2021 malayalam  etmovies xxx master Synchronic 2020 Fate The Winx Saga S01E01 A Discovery of Witches s02e03 Promising Young Woman 2020 ettv monster hunter  WandaVision S01E01 the stand the watch Legacies s03e01 The Watch S01E05 Madam chief Minister The White Tiger 2021 your honor The Marksman 2021 the rookie etrg Run Hide Fight 2020 WandaVision S01E02 fbi outside the wire 2021 Your Honor S01E07 Shadow in the Cloud 2020 Tenet 2020 Batwoman S02E02 rq.mp4 tandav Attack on titan Soul 2020 ethd The Blacklist S08E03 wonder woman 1984 2020 American Gods S03E03 evo the white tiger  
Warning! Use a VPN When Downloading Torrents!
Your IP Address is 3.239.242.55. Location United States
Your Internet Provider can see when you download torrents! Hide your IP Address with a VPN
ETTV warns: You should use VPN to hide your torrenting. HIDE ME NOW
ETTV Recommended TV Shows
WWE Monday Night Raw 2021 01 25 HDTV x264-NWCHD [TJET] torrent
9-1-1.Lone.Star.S02E02.720p.WEB.H264-CAKES torrent
9-1-1.S04E02.720p.WEB.H264-CAKES torrent
All.American.S03E02.720p.HDTV.x264-SYNCOPY torrent
All.Rise.S02E07.720p.HDTV.x264-SYNCOPY torrent
Below.Deck.S08E13.720p.HDTV.x264-SYNCOPY torrent
Snowpiercer.S02E01.1080p.WEBRip.x264-CAKES torrent
The.Good.Doctor.S04E08.720p.HDTV.x264-SYNCOPY torrent

ETTV Recommended SD
Skyfire.2019.BRRip.XviD.AC3-EVO torrent
Ammonite.2020.BRRip.XviD.AC3-EVO torrent
Magic.Max.2021.HDRip.XviD.AC3-EVO torrent
Trafficked.A.Parents.Worst.Nightmare.2021.HDRip.XviD.AC3-EVO torrent

ETTV Recommended HD
Elektra (2005) [Jennifer Garner] 1080p H264 DolbyD 5.1 ūüíé nickarad torrent
There's Something About Mary (1998)[BDRemux 1080p x 264 by alE13 DTS/AC3][Multi Audio & Sub][Eng] torrent
The Dam Busters (1955) [REMASTERED] [BDRip 1080p x 264 by alE13 AC3/FLAC][Sub Eng/PL][Eng] torrent
When Eight Bells Toll (1971)[BDRemux 1080p x 264 by alE13 DTS/AC3][Lektor PL/Sub Eng][Eng] torrent

ETTV Recommended UHD
Police.2020.HDR.2160p.WEB.DDP5.1.HEVC-DDR.mkv torrent
The.Climb.2020.HDR.2160p.WEB.DDP5.1.HEVC-DDR.mkv torrent
2012.2009.Multi.UHD.BluRay.2160p.HDR.HEVC.TrueHD.Atmos.7.1-DDR.mkv torrent
Master Z Ip Man Legacy 2018 4K MULTI 2160p HDR WEB AC3 HEVC-DDR.mkv torrent
Money.Monster.2016.4K.MULTI.2160p.HDR.WEB.DTS-HDMA.5.1.HEVC-DDR.mkv torrent
Superbad.2007.Theatrical.Cut.4K.MULTI.2160p.HDR.WEB.AC3.HEVC-DDR.mkv torrent

ETTV Recommended Cam
The Rescue (2020) English HDCAM x264 AAC By Full4Movies torrent
The Father (2020) English HDCAM x264 AAC By Full4Movies torrent
One Night in Miami (2020) English HDCAM x264 AAC By Full4Movies torrent
It Snows in Benidorm (2020) 720p HDCAM [Hindi-Sub] x264 1XBET torrent

ETTV Recommended Foreign
Set Play 2020 720p Korean HDRip H264 BONE torrent
The.Day.I.Died.Unclosed.Case.2020.HDRip.720p.Korean.x264.AAC-Mkvking torrent
Your Honor (2020) 720p S-01 Ep-[01-12] HDRip [Hindi + Tamil + Telugu + Mal] x264 AAC ESub By Full4Movies torrent
Bending The Rules (2012) 720p BluRay x264 Eng Subs [Dual Audio] [Hindi DD 2.0 - English 5.1] Exclusive By -=!Dr.STAR!=- torrent
The Marksman (2021) English HDCAM x264 AAC By Full4Movies torrent
Shooter (2007) AC3 5.1 ITA.ENG 1080p H265 sub ita.eng Sp33dy94 MIRCrew torrent

ETTV Recommended Music
Sam Cooke - Eight Classic Albums (4CD) (2013) [FLAC] [DJ] torrent
UB40 - Gold - 2-CD-[MP3-320]-[TFM] torrent
[alternative folk] (2021) Wardruna - Kvitravn [FLAC] [DarkAngie] torrent
Europe - Gold (3CD) (2021) Mp3 320kbps [PMEDIA] ‚≠źÔłŹ torrent
John Denver - Gold (3CD) (2020) Mp3 320kbps [PMEDIA] ‚≠źÔłŹ torrent
[dream-pop, shoegaze] (2021) Sweet Trip - You Will Never Know Why [FLAC] [DarkAngie] torrent


Download Torrent "Bright Hill Road (2020) 720p English HDRip x264 AAC By Full4Movies"

IMDB Details
Description:

When a misstep after a workplace shooting puts alcoholic Marcy on leave, she heads out to see her sister in California. Halfway there, she stops for a couple of days at the Bright Hill Road...

Genre:

Horror

Download Torrent (Magnet)
Download Torrent (File)

Seeds: 4
Leechers: 5

Uploaded by:
full4movies


Category:
Movies > HD 720p (Great for large screens)


Details
Title:Bright Hill Road (2020) 720p English HDRip x264 AAC By Full4Movies
Description:


Visit Us = https://full4movies.xyz/



General
Complete name                  : Bright Hill Road (2020) 720p English HDRip x264 AAC By Full4Movies.mkv
Format                         : Matroska
Format version                 : Version 4
File size                      : 795 MiB
Duration                       : 1 h 31 min
Overall bit rate               : 1 210 kb/s
Encoded date                   : UTC 2021-01-12 06:27:01
Writing application            : mkvmerge v8.0.0 ('Til The Day That I Die') 32bit
Writing library                : libebml v1.3.1 + libmatroska v1.4.2

Video
ID                             : 1
Format                         : AVC
Format/Info                    : Advanced Video Codec
Format profile¬† ¬† ¬† ¬† ¬† ¬† ¬† ¬† ¬†: [email protected]
Format settings                : CABAC / 4 Ref Frames
Format settings, CABAC         : Yes
Format settings, Reference fra : 4 frames
Codec ID                       : V_MPEG4/ISO/AVC
Duration                       : 1 h 31 min
Bit rate                       : 1 112 kb/s
Width                          : 1 280 pixels
Height                         : 528 pixels
Display aspect ratio           : 2.40:1
Frame rate mode                : Variable
Frame rate                     : 23.976 FPS
Color space                    : YUV
Chroma subsampling             : 4:2:0
Bit depth                      : 8 bits
Scan type                      : Progressive
Bits/(Pixel*Frame)             : 0.069
Stream size                    : 731 MiB (92%)
Writing library                : x264 core 157
Language                       : English
Default                        : Yes
Forced                         : No

Audio
ID                             : 2
Format                         : AAC LC
Format/Info                    : Advanced Audio Codec Low Complexity
Codec ID                       : A_AAC-2
Duration                       : 1 h 31 min
Bit rate                       : 96.0 kb/s
Channel(s)                     : 2 channels
Channel layout                 : L R
Sampling rate                  : 48.0 kHz
Frame rate                     : 46.875 FPS (1024 SPF)
Compression mode               : Lossy
Stream size                    : 63.3 MiB (8%)
Language                       : English
Default                        : Yes
Forced                         : No

Screen Shoots

Category:Movies > HD 720p
Lang:English  English
Total Size:795 MB
Info Hash:5717b9770aa642f168f45914c3ca545bb2c65c14
Added By:full4movies
Date Added:12-01-2021 14:37:28

  

Files

File List: 
 File Size
Bright Hill Road (2020) 720p English HDRip x264 AAC By Full4Movies.mkv795 MB



Comments

There are currently no comments. Be the first one to write something !