malayalam  ettv servant Outside the Wire 2021 monster hunter Monster Hunter 2020 WandaVision s01e01 WandaVision  The Marksman 2021 Run Hide Fight 2020 Private Eyes S04E10 Magnum P.I. S03E06 wwe MacGyver S05E06 yts A Discovery of Witches S02E03 Young Sheldon S04E06 Gold Rush S11E13 the blacklist Last Man Standing S09E04 etmovies Legacies s03e01 Batman Soul of the Dragon 2021 hindi The White Tiger 2021 private eyes Gold Rush Synchronic 2020 Redemption Day 2021 madam chief minister ddr Mom S08E06 the white tiger  WandaVision S01E02 the stand Superstore S06E06 Greenland 2020 Tenet 2020 The Stand S01E06 master 2021 Walker S01E01 rq.mp4 Fatale 2020 ita wonder woman 1984 2020 jeet ki zid master The Croods A New Age 2020 Gold Rush White Water S04E08 Servant s02e02 Locked Down 2021 wandavision s01e03 young sheldon Promising Young Woman 2020 TANDAV Honest Thief 2020 etrg Xxx Law and Order SVU S22E06 Real Time with Bill Maher S19E02 Horizon Line 2020 hindi 2021 Hells Kitchen S19E03 Shadow in the Cloud 2020 tamil The Blacklist S08E03 Fate The Winx Saga S01E01 Soul 2020 Legacies Blue Bloods S11E05 News of the World 2020 evo ethd 
Warning! Use a VPN When Downloading Torrents!
Your IP Address is 18.207.108.182. Location United States
Your Internet Provider can see when you download torrents! Hide your IP Address with a VPN
ETTV warns: You should use VPN to hide your torrenting. HIDE ME NOW
ETTV Recommended TV Shows
WWE Friday Night SmackDown 2021 01 22 HDTV x264-Star [TJET] torrent
Blue.Bloods.S11E05.720p.HDTV.x264-SYNCOPY torrent
Gold.Rush.S11E13.Got.Your.Six.720p.WEBRip.x264-CAFFEiNE torrent
Gold.Rush.White.Water.S04E08.Dustin.to.the.Rescue.720p.WEBRip.x264-CAFFEiNE torrent
Last.Man.Standing.US.S09E04.REPACK.720p.WEB.h264-KOGi torrent
MacGyver.2016.S05E06.720p.HDTV.x264-SYNCOPY torrent
Magnum.P.I.2018.S03E06.720p.HDTV.x264-SYNCOPY torrent
The.Blacklist.S08E03.720p.HDTV.x264-SYNCOPY torrent

ETTV Recommended SD
Spiral.2020.BRRip.XviD.AC3-EVO torrent
Batman.Soul.of.the.Dragon.2021.BRRip.XviD.AC3-EVO torrent
On.Site.2020.HDRip.XviD.AC3-EVO torrent
The.White.Tiger.2021.HDRip.XviD.AC3-EVO torrent

ETTV Recommended HD
Body.of.Water.2020.HDRip.XviD.AC3-EVO torrent
Todd (2021) 720p English HDRip x264 AAC By Full4Movies torrent
Lost.Girls.and.Love.Hotels.2020.BRRip.XviD.AC3-EVO torrent
Elektra (2005) [Jennifer Garner] 1080p H264 DolbyD 5.1 ūüíé nickarad torrent

ETTV Recommended UHD
Police.2020.HDR.2160p.WEB.DDP5.1.HEVC-DDR.mkv torrent
The.Climb.2020.HDR.2160p.WEB.DDP5.1.HEVC-DDR.mkv torrent
2012.2009.Multi.UHD.BluRay.2160p.HDR.HEVC.TrueHD.Atmos.7.1-DDR.mkv torrent
Master Z Ip Man Legacy 2018 4K MULTI 2160p HDR WEB AC3 HEVC-DDR.mkv torrent
Money.Monster.2016.4K.MULTI.2160p.HDR.WEB.DTS-HDMA.5.1.HEVC-DDR.mkv torrent
Superbad.2007.Theatrical.Cut.4K.MULTI.2160p.HDR.WEB.AC3.HEVC-DDR.mkv torrent

ETTV Recommended Cam
The Rescue (2020) English HDCAM x264 AAC By Full4Movies torrent
The Father (2020) English HDCAM x264 AAC By Full4Movies torrent
One Night in Miami (2020) English HDCAM x264 AAC By Full4Movies torrent
It Snows in Benidorm (2020) 720p HDCAM [Hindi-Sub] x264 1XBET torrent

ETTV Recommended Foreign
Yu Pui Tsuen III (1996) UNRATED 720p BluRay x264 Eng Subs [Dual Audio] [Hindi DD 2.0 - Chinese 2.0] Exclusive By -=!Dr.STAR!=- torrent
Set Play 2020 720p Korean HDRip H264 BONE torrent
The.Day.I.Died.Unclosed.Case.2020.HDRip.720p.Korean.x264.AAC-Mkvking torrent
Your Honor (2020) 720p S-01 Ep-[01-12] HDRip [Hindi + Tamil + Telugu + Mal] x264 AAC ESub By Full4Movies torrent
Bending The Rules (2012) 720p BluRay x264 Eng Subs [Dual Audio] [Hindi DD 2.0 - English 5.1] Exclusive By -=!Dr.STAR!=- torrent
The Marksman (2021) English HDCAM x264 AAC By Full4Movies torrent

ETTV Recommended Music
[ambient, jazz] (2021) Patricia Brennan - Maquishti [FLAC] [DarkAngie] torrent
[psychedelic rock] (2021) Miss Lava - Doom Machine [FLAC] [DarkAngie] torrent
50 Tracks Top Female Artists of 2020 (ETTV)  Playlist Spotify ~320  kbps Beats‚≠ź torrent
50 Tracks Top Male  Artists of 2020 (ETTV)  Playlist Spotify ~320  kbps Beats‚≠ź torrent
Sam Cooke - Eight Classic Albums (4CD) (2013) [FLAC] [DJ] torrent
UB40 - Gold - 2-CD-[MP3-320]-[TFM] torrent


Download Torrent "Elton John - Honky Chateau (1972) (PBTHAL LP 24-96) [FLAC] vtwin88cube"

IMDB Details
Description:

N/A

Genre:

N/A

Download Torrent (Magnet)
Download Torrent (File)

Seeds: 194
Leechers: 30

Uploaded by:
vtwin88cube


Category:
Music > FLAC


Details
Title:Elton John - Honky Chateau (1972) (PBTHAL LP 24-96) [FLAC] vtwin88cube
Description:
Elton John
Honky Ch√Ęteau (1972)
FLAC LOSSLESS 24bit-96kHz
UK PBTHAL Vinyl Rip


allmusic.com...

Considerably lighter than Madman Across the Water, Honky Chateau is a rollicking collection of ballads, rockers, blues, country-rock, and soul songs. On paper, it reads like an eclectic mess, but it plays as the most focused and accomplished set of songs Elton John and Bernie Taupin ever wrote. The skittering boogie of "Honky Cat" and the light psychedelic pop of "Rocket Man" helped send Honky Chateau to the top of the charts, but what is truly impressive about the album is the depth of its material. From the surprisingly cynical and nasty "I Think I'm Going to Kill Myself" to the moving ballad "Mona Lisas and Mad Hatters," John is at the top of his form, crafting immaculate pop songs with memorable melodies and powerful hooks. While Taupin's lyrics aren't much more comprehensible than before, John delivers them with skill and passion, making them feel more substantial than they are. But what makes Honky Chateau a classic is the songcraft, and the way John ties disparate strands of roots music into distinctive and idiosyncratic pop -- it's one of the finest collections of mainstream singer/songwriter pop of the early '70s.


foobar2000 1.4.3 / Dynamic Range Meter 1.1.1
log date: 2021-01-08 10:31:20

--------------------------------------------------------------------------------
Analyzed: Elton John / Honky Ch√Ęteau
--------------------------------------------------------------------------------

DR         Peak         RMS     Duration Track
--------------------------------------------------------------------------------
DR13      -3.29 dB   -18.50 dB      5:12 01-Honky Cat
DR13      -3.40 dB   -19.96 dB      5:31 02-Mellow
DR14      -1.70 dB   -19.69 dB      3:34 03-I Think I'm Going To Kill Myself
DR14      -1.37 dB   -18.47 dB      3:24 04-Susie (Dramas)
DR15      -2.82 dB   -20.87 dB      4:40 05-Rocket Man (I Think It's Going To Be A Long, Long Time)
DR12      -2.06 dB   -18.48 dB      3:59 06-Salvation
DR14      -2.71 dB   -19.55 dB      4:20 07-Slave
DR12      -0.70 dB   -17.00 dB      4:04 08-Amy
DR13      -5.05 dB   -21.70 dB      4:59 09-Mona Lisas And Mad Hatters
DR13      -2.34 dB   -18.31 dB      5:21 10-Hercules

Number of tracks:  10
Official DR value: DR13

Samplerate:        96000 Hz
Channels:          2
Bits per sample:   24
Bitrate:           3040 kbps
Codec:             FLAC





Support the artists...
buy it if you like it!

Thanks for Seeding!
Cheers! ;)
Category:Music > FLAC
Lang:Unknown/NA
Total Size:923 MB
Info Hash:ca084ce973ac71cd458230478ee69c6cc76f5ea2
Added By:vtwin88cube
Date Added:09-01-2021 03:40:22

Files

File List: 
 File Size
00.-Elton John - Honky Ch√Ęteau.m3u277.00 B
01.-Honky Cat.flac109 MB
02.-Mellow.flac110 MB
03.-I Think I'm Going To Kill Myself.flac73 MB
04.-Susie (Dramas).flac72 MB
05.-Rocket Man (I Think It's Going To Be A Long, Long Time).flac93 MB
06.-Salvation.flac81 MB
07.-Slave.flac90 MB
08.-Amy.flac85 MB
09.-Mona Lisas And Mad Hatters.flac94 MB
10.-Hercules.flac116 MB
DR13.txt1.36 kB
folder.jpg198.54 kB
lineage.txt347.00 B



Comments

There are currently no comments. Be the first one to write something !