malayalam  ettv servant Outside the Wire 2021 monster hunter Monster Hunter 2020 WandaVision s01e01 WandaVision  The Marksman 2021 Run Hide Fight 2020 Private Eyes S04E10 Magnum P.I. S03E06 wwe MacGyver S05E06 yts A Discovery of Witches S02E03 Young Sheldon S04E06 Gold Rush S11E13 the blacklist Last Man Standing S09E04 etmovies Legacies s03e01 Batman Soul of the Dragon 2021 hindi The White Tiger 2021 private eyes Gold Rush Synchronic 2020 Redemption Day 2021 madam chief minister ddr Mom S08E06 the white tiger  WandaVision S01E02 the stand Superstore S06E06 Greenland 2020 Tenet 2020 The Stand S01E06 master 2021 Walker S01E01 rq.mp4 Fatale 2020 ita wonder woman 1984 2020 jeet ki zid master The Croods A New Age 2020 Gold Rush White Water S04E08 Servant s02e02 Locked Down 2021 wandavision s01e03 young sheldon Promising Young Woman 2020 TANDAV Honest Thief 2020 etrg Xxx Law and Order SVU S22E06 Real Time with Bill Maher S19E02 Horizon Line 2020 hindi 2021 Hells Kitchen S19E03 Shadow in the Cloud 2020 tamil The Blacklist S08E03 Fate The Winx Saga S01E01 Soul 2020 Legacies Blue Bloods S11E05 News of the World 2020 evo ethd 
Warning! Use a VPN When Downloading Torrents!
Your IP Address is 18.207.108.182. Location United States
Your Internet Provider can see when you download torrents! Hide your IP Address with a VPN
ETTV warns: You should use VPN to hide your torrenting. HIDE ME NOW
ETTV Recommended TV Shows
Gold.Rush.S11E13.Got.Your.Six.720p.WEBRip.x264-CAFFEiNE torrent
Last.Man.Standing.US.S09E04.REPACK.720p.WEB.h264-KOGi torrent
MacGyver.2016.S05E06.720p.HDTV.x264-SYNCOPY torrent
Magnum.P.I.2018.S03E06.720p.HDTV.x264-SYNCOPY torrent
The.Blacklist.S08E03.720p.HDTV.x264-SYNCOPY torrent
American.Gods.S03E03.1080p.WEB.H264-GGEZ torrent
Private.Eyes.S04E10.720p.HDTV.x264-SYNCOPY torrent
UFC.257.Poirier.vs.McGregor.Prelims.720p.HDTV.x264-VERUM torrent

ETTV Recommended SD
Spiral.2020.BRRip.XviD.AC3-EVO torrent
Batman.Soul.of.the.Dragon.2021.BRRip.XviD.AC3-EVO torrent
On.Site.2020.HDRip.XviD.AC3-EVO torrent
The.White.Tiger.2021.HDRip.XviD.AC3-EVO torrent

ETTV Recommended HD
Body.of.Water.2020.HDRip.XviD.AC3-EVO torrent
Todd (2021) 720p English HDRip x264 AAC By Full4Movies torrent
Lost.Girls.and.Love.Hotels.2020.BRRip.XviD.AC3-EVO torrent
Elektra (2005) [Jennifer Garner] 1080p H264 DolbyD 5.1 💎 nickarad torrent

ETTV Recommended UHD
Police.2020.HDR.2160p.WEB.DDP5.1.HEVC-DDR.mkv torrent
The.Climb.2020.HDR.2160p.WEB.DDP5.1.HEVC-DDR.mkv torrent
2012.2009.Multi.UHD.BluRay.2160p.HDR.HEVC.TrueHD.Atmos.7.1-DDR.mkv torrent
Master Z Ip Man Legacy 2018 4K MULTI 2160p HDR WEB AC3 HEVC-DDR.mkv torrent
Money.Monster.2016.4K.MULTI.2160p.HDR.WEB.DTS-HDMA.5.1.HEVC-DDR.mkv torrent
Superbad.2007.Theatrical.Cut.4K.MULTI.2160p.HDR.WEB.AC3.HEVC-DDR.mkv torrent

ETTV Recommended Cam
The Rescue (2020) English HDCAM x264 AAC By Full4Movies torrent
The Father (2020) English HDCAM x264 AAC By Full4Movies torrent
One Night in Miami (2020) English HDCAM x264 AAC By Full4Movies torrent
It Snows in Benidorm (2020) 720p HDCAM [Hindi-Sub] x264 1XBET torrent

ETTV Recommended Foreign
Yu Pui Tsuen III (1996) UNRATED 720p BluRay x264 Eng Subs [Dual Audio] [Hindi DD 2.0 - Chinese 2.0] Exclusive By -=!Dr.STAR!=- torrent
Set Play 2020 720p Korean HDRip H264 BONE torrent
The.Day.I.Died.Unclosed.Case.2020.HDRip.720p.Korean.x264.AAC-Mkvking torrent
Your Honor (2020) 720p S-01 Ep-[01-12] HDRip [Hindi + Tamil + Telugu + Mal] x264 AAC ESub By Full4Movies torrent
Bending The Rules (2012) 720p BluRay x264 Eng Subs [Dual Audio] [Hindi DD 2.0 - English 5.1] Exclusive By -=!Dr.STAR!=- torrent
The Marksman (2021) English HDCAM x264 AAC By Full4Movies torrent

ETTV Recommended Music
[ambient, jazz] (2021) Patricia Brennan - Maquishti [FLAC] [DarkAngie] torrent
[psychedelic rock] (2021) Miss Lava - Doom Machine [FLAC] [DarkAngie] torrent
50 Tracks Top Female Artists of 2020 (ETTV)  Playlist Spotify ~320  kbps Beats⭐ torrent
50 Tracks Top Male  Artists of 2020 (ETTV)  Playlist Spotify ~320  kbps Beats⭐ torrent
Sam Cooke - Eight Classic Albums (4CD) (2013) [FLAC] [DJ] torrent
UB40 - Gold - 2-CD-[MP3-320]-[TFM] torrent


Download Torrent "Garth Brooks - No Fences (1990) (PBTHAL LP 24-96) [FLAC] vtwin88cube"

IMDB Details
Description:

N/A

Genre:

N/A

Download Torrent (Magnet)
Download Torrent (File)

Seeds: 131
Leechers: 25

Uploaded by:
vtwin88cube


Category:
Music > FLAC


Details
Title:Garth Brooks - No Fences (1990) (PBTHAL LP 24-96) [FLAC] vtwin88cube
Description:
Garth Brooks
No Fences (1990)
FLAC LOSSLESS 24bit-96kHz
PBTHAL Vinyl Rip


allmusic.com...

Essentially, Garth Brooks's second album, No Fences, follows the same pattern as his debut, but it is a more assured and risky record. Brooks still performs neo-traditional country, such as the honky tonk hit "Friends in Low Places," but now he twists it around with clever pop hooks. Those pop/rock influences are most apparent on the ballads, which alternate between sensitive folk-rock and power ballad bombast. But what makes No Fences such a success is how seamlessly he blends the two seemingly opposing genres, and how he chooses a set of material that makes his genre-bending sound subtle and natural. Of course, it doesn't hurt that the songs are consistently entertaining, either.


foobar2000 1.4.3 / Dynamic Range Meter 1.1.1
log date: 2021-01-07 18:55:02

--------------------------------------------------------------------------------
Analyzed: Garth Brooks / No Fences
--------------------------------------------------------------------------------

DR         Peak         RMS     Duration Track
--------------------------------------------------------------------------------
DR12      -1.02 dB   -17.01 dB      3:45 01-The Thunder Rolls
DR12      -1.66 dB   -17.21 dB      3:55 02-New Way To Fly
DR14      -0.70 dB   -17.04 dB      2:33 03-Two Of A Kind, Workin' On A Full House
DR12      -0.94 dB   -18.75 dB      3:07 04-Victim Of The Game
DR13      -1.75 dB   -17.54 dB      4:22 05-Friends In Low Places
DR13      -1.85 dB   -17.01 dB      3:09 06-Wild Horses
DR13      -1.38 dB   -18.48 dB      3:26 07-Unanswered Prayers
DR12      -3.41 dB   -18.72 dB      2:53 08-Same Old Story
DR14      -0.70 dB   -19.90 dB      3:19 09-Mr. Blue
DR12      -3.98 dB   -20.69 dB      4:14 10-Wolves

Number of tracks:  10
Official DR value: DR13

Samplerate:        96000 Hz
Channels:          2
Bits per sample:   24
Bitrate:           2682 kbps
Codec:             FLAC





Support the artists...
buy it if you like it!


Thanks for Seeding!
Cheers! ;)
Category:Music > FLAC
Lang:Unknown/NA
Total Size:701 MB
Info Hash:26c698ee4b7d3b4b859fe83010880927f179bcfd
Added By:vtwin88cube
Date Added:08-01-2021 04:25:42

Files

File List: 
 File Size
00.-Garth Brooks - No Fences.m3u275.00 B
01.-The Thunder Rolls.flac76 MB
02.-New Way To Fly.flac79 MB
03.-Two Of A Kind, Workin' On A Full House.flac53 MB
04.-Victim Of The Game.flac63 MB
05.-Friends In Low Places.flac91 MB
06.-Wild Horses.flac65 MB
07.-Unanswered Prayers.flac69 MB
08.-Same Old Story.flac57 MB
09.-Mr. Blue.flac66 MB
10.-Wolves.flac81 MB
DR13.txt1.35 kB
folder.jpg266.04 kB
lineage.txt563.00 B



Comments

There are currently no comments. Be the first one to write something !