the stand wandavision Fatale 2020 Tenet 2020 Real Time with Bill Maher S19E01 legends Monster Hunter 2020 SEAL Team S04E05 The Marksman 2021 Wonder Woman 1984 2020 bhoomi Superstore S06E05 S.W.A.T. S04E07 Prodigal Son S02E01 tamil  evo ddr disenchantment outside the wire gold rush Redemption Day 2021 Servant s02e01 wwe rq.mp4 malayalam Master the expanse One Night in Miami... 2021 tandav master 2021  Last Man Standing S09E03 Soul 2020 Greenland 2020 Synchronic 2020 Chicago Fire S09E03 tamil 2021 WandaVision S01E01 wanda vision shark tank s12e10 MacGyver S05E05 Locked Down 2021 Hindi etrg news of the world News of the World 2020 the power the great Indian kitchen Gold Rush S11E12 Chicago P.D. S08E03 monster hunter ettv The Stand S01E05 gullak A Discovery of Witches S02E02 shadow in the cloud 2020 master tamil yts Law and Order SVU S22E05 hindi 2021 wanda ita Magnum P.I. S03E05 promising young woman 2020 Night Stalker The Hunt for a Serial Killer S01E01 WandaVision s01e02 ethd The Croods A New Age 2020 outside the wire 2021 Gold Rush White Water S04E08 tribhanga xxx your honor s01e06 etmovies 
Warning! Use a VPN When Downloading Torrents!
Your IP Address is 3.232.133.141. Location United States
Your Internet Provider can see when you download torrents! Hide your IP Address with a VPN
ETTV warns: You should use VPN to hide your torrenting. HIDE ME NOW
ETTV Recommended TV Shows
Call.Me.Kat.S01E03.720p.WEB.H264-CAKES torrent
Law.and.Order.SVU.S22E05.720p.HDTV.x264-SYNCOPY torrent
Mr.Mayor.S01E03.720p.HDTV.x264-SYNCOPY torrent
Private.Eyes.S04E09.720p.HDTV.x264-SYNCOPY torrent
Forged.in.Fire.S08E09.720p.WEB.h264-BAE torrent
Dickinson.S02E04.720p.WEB.H264-GGWP torrent
WWE Friday Night SmackDown 2021 01 15 HDTV x264-NWCHD [TJET] torrent
WWE 205 Live 2021 01 15 720p Hi WEB h264-HEEL [TJET] torrent

ETTV Recommended SD
Curse.of.Aurore.2020.HDRip.XviD.AC3-EVO torrent
Battle of the V-1 1958 torrent
Outside.the.Wire.2021.HDRip.XviD.AC3-EVO torrent
The.Ultimate.Playlist.of.Noise.2021.HDRip.XviD.AC3-EVO torrent

ETTV Recommended HD
The Mummy (2017)Mp-4 1080p 6ch[DSD] torrent
Body.of.Water.2020.HDRip.XviD.AC3-EVO torrent
Todd (2021) 720p English HDRip x264 AAC By Full4Movies torrent
Lost.Girls.and.Love.Hotels.2020.BRRip.XviD.AC3-EVO torrent

ETTV Recommended UHD
We.Can.Be.Heroes.2020.4K.MULTI.2160p.HDR.WEB..DDP.5.1.HEVC-DDR.mkv torrent
Horizon.Line.2020.2160p.AMZN.WEB.DDP5.1.HDR.HEVC-DDR.mkv torrent
The.Empty.Man.2021.2160p.AMZN.WEB.DDP5.1.HDR.HEVC-DDR.mkv torrent
News.of.the.World.2021.2160p.AMZN.WEB.DDP5.1.HDR.HEVC-DDR.mkv torrent
One.Night.in.Miami.2020.4K.MULTI.2160p.HDR.WEB.EAC3..5.1.HEVC§-DDR.mkv torrent
Promising.Young.Woman.2021.2160p.AMZN.WEB.DDP5.1.HDR.HEVC-DDR.mkv torrent

ETTV Recommended Cam
The Rescue (2020) English HDCAM x264 AAC By Full4Movies torrent
The Father (2020) English HDCAM x264 AAC By Full4Movies torrent
One Night in Miami (2020) English HDCAM x264 AAC By Full4Movies torrent
It Snows in Benidorm (2020) 720p HDCAM [Hindi-Sub] x264 1XBET torrent

ETTV Recommended Foreign
Back.to.the.Wharf.2020.WEBRip.x264.AAC.720p-Mkvking torrent
Jurassic Shark (2012) 720p BluRay x264 [Dual Audio] [Hindi DD 2.0 - English 5.1] Exclusive By -=!Dr.STAR!=- torrent
Express Raja (2016) HDRip UnCut 1080p [Hindi DD 2.0 – Telugu 2.0] x264 AAC ESub By Full4Movies torrent
Yu Pui Tsuen III (1996) UNRATED 720p BluRay x264 Eng Subs [Dual Audio] [Hindi DD 2.0 - Chinese 2.0] Exclusive By -=!Dr.STAR!=- torrent
Set Play 2020 720p Korean HDRip H264 BONE torrent
The.Day.I.Died.Unclosed.Case.2020.HDRip.720p.Korean.x264.AAC-Mkvking torrent

ETTV Recommended Music
[electronic, indie-pop, post-punk] (2020) VA – No Cover : A Carpark Covers Comp [FLAC] [DarkAngie] torrent
ZZ Top - Six Pack (3CD) (1987) [FLAC] (Fixed) [FLAC] [DJ] torrent
Billboard Hot 100 Singles Chart (16-January-2021) Mp3 320kbps [PMEDIA] ⭐️ torrent
Stan Getz - Our Favourites (2021) Mp3 320kbps [PMEDIA] ⭐️ torrent
KT Tunstall - Drastic Fantastic (Ultimate Edition) (2021) Mp3 320kbps [PMEDIA] ⭐️ torrent
Bob Dylan - Another Side Of Bob Dylan (1964) (PBTHAL LP 24-96) [FLAC] vtwin88cube torrent


Download Torrent "The Father (2020) English HDCAM x264 AAC By Full4Movies"

IMDB Details
Description:

A man refuses all assistance from his daughter as he ages. As he tries to make sense of his changing circumstances, he begins to doubt his loved ones, his own mind and even the fabric of his reality.

Genre:

Drama

Download Torrent (Magnet)
Download Torrent (File)

Seeds: 59
Leechers: 15

Uploaded by:
full4movies


Category:
Movies > CAM/TS


Details
Title:The Father (2020) English HDCAM x264 AAC By Full4Movies
Description:


Visit Us = https://full4movies.xyz/

General
Complete name                  : The Father (2020) English HDCAM x264 AAC By Full4Movies.mkv
Format                         : Matroska
Format version                 : Version 4
File size                      : 846 MiB
Duration                       : 1 h 33 min
Overall bit rate               : 1 259 kb/s
Encoded date                   : UTC 2020-12-27 14:52:39
Writing application            : mkvmerge v8.0.0 ('Til The Day That I Die') 32bit
Writing library                : libebml v1.3.1 + libmatroska v1.4.2

Video
ID                             : 1
Format                         : AVC
Format/Info                    : Advanced Video Codec
Format profile                 : [email protected]
Format settings                : CABAC / 5 Ref Frames
Format settings, CABAC         : Yes
Format settings, Reference fra : 5 frames
Codec ID                       : V_MPEG4/ISO/AVC
Duration                       : 1 h 33 min
Bit rate                       : 1 160 kb/s
Width                          : 720 pixels
Height                         : 304 pixels
Display aspect ratio           : 2.40:1
Frame rate mode                : Constant
Frame rate                     : 30.000 FPS
Color space                    : YUV
Chroma subsampling             : 4:2:0
Bit depth                      : 8 bits
Scan type                      : Progressive
Bits/(Pixel*Frame)             : 0.177
Stream size                    : 779 MiB (92%)
Writing library                : x264 core 157
Default                        : Yes
Forced                         : No

Audio
ID                             : 2
Format                         : AAC LC
Format/Info                    : Advanced Audio Codec Low Complexity
Codec ID                       : A_AAC-2
Duration                       : 1 h 33 min
Bit rate                       : 96.0 kb/s
Channel(s)                     : 2 channels
Channel layout                 : L R
Sampling rate                  : 48.0 kHz
Frame rate                     : 46.875 FPS (1024 SPF)
Compression mode               : Lossy
Stream size                    : 64.8 MiB (8%)
Language                       : English
Default                        : Yes
Forced                         : No

Screen Shoots

Category:Movies > CAM/TS
Lang:English  English
Total Size:846 MB
Info Hash:9c9914778868900bfcdbc2893d51e998465640af
Added By:full4movies
Date Added:27-12-2020 15:58:15

  

Files

File List: 
 File Size
The Father (2020) English HDCAM x264 AAC By Full4Movies.mkv846 MB



Comments

There are currently no comments. Be the first one to write something !