Jumanji Level One 2021 the croods a new age 2020 The Stand S01E06 Locked Down 2021 Horizon Line 2020 yts Monster Hunter 2020 90 Day Fiance S08E08 Charmed S03E01 Blue Bloods S11E05 Walker S01E01 Gold Rush S11E13 Honest Thief 2020 WandaVision S01E03 Greenland 2020 Tamil  Fatale 2020 The Rookie S03E04 ufc Your Honor S01E08 wandavision ufc 257 ddr batwoman hindi FBI S03E04 2160p Redemption Day 2021 news of the world 2020 wwe The Little Things 2021 american gods hindi 2021 Master 2021 malayalam  etmovies xxx master Synchronic 2020 Fate The Winx Saga S01E01 A Discovery of Witches s02e03 Promising Young Woman 2020 ettv monster hunter  WandaVision S01E01 the stand the watch Legacies s03e01 The Watch S01E05 Madam chief Minister The White Tiger 2021 your honor The Marksman 2021 the rookie etrg Run Hide Fight 2020 WandaVision S01E02 fbi outside the wire 2021 Your Honor S01E07 Shadow in the Cloud 2020 Tenet 2020 Batwoman S02E02 rq.mp4 tandav Attack on titan Soul 2020 ethd The Blacklist S08E03 wonder woman 1984 2020 American Gods S03E03 evo the white tiger  
Warning! Use a VPN When Downloading Torrents!
Your IP Address is 54.85.57.0. Location United States
Your Internet Provider can see when you download torrents! Hide your IP Address with a VPN
ETTV warns: You should use VPN to hide your torrenting. HIDE ME NOW
ETTV Recommended TV Shows
WWE Monday Night Raw 2021 01 25 HDTV x264-NWCHD [TJET] torrent
9-1-1.Lone.Star.S02E02.720p.WEB.H264-CAKES torrent
9-1-1.S04E02.720p.WEB.H264-CAKES torrent
All.American.S03E02.720p.HDTV.x264-SYNCOPY torrent
All.Rise.S02E07.720p.HDTV.x264-SYNCOPY torrent
Below.Deck.S08E13.720p.HDTV.x264-SYNCOPY torrent
Snowpiercer.S02E01.1080p.WEBRip.x264-CAKES torrent
The.Good.Doctor.S04E08.720p.HDTV.x264-SYNCOPY torrent

ETTV Recommended SD
Skyfire.2019.BRRip.XviD.AC3-EVO torrent
Ammonite.2020.BRRip.XviD.AC3-EVO torrent
Magic.Max.2021.HDRip.XviD.AC3-EVO torrent
Trafficked.A.Parents.Worst.Nightmare.2021.HDRip.XviD.AC3-EVO torrent

ETTV Recommended HD
Body.of.Water.2020.HDRip.XviD.AC3-EVO torrent
Todd (2021) 720p English HDRip x264 AAC By Full4Movies torrent
Lost.Girls.and.Love.Hotels.2020.BRRip.XviD.AC3-EVO torrent
Elektra (2005) [Jennifer Garner] 1080p H264 DolbyD 5.1 ūüíé nickarad torrent

ETTV Recommended UHD
Police.2020.HDR.2160p.WEB.DDP5.1.HEVC-DDR.mkv torrent
The.Climb.2020.HDR.2160p.WEB.DDP5.1.HEVC-DDR.mkv torrent
2012.2009.Multi.UHD.BluRay.2160p.HDR.HEVC.TrueHD.Atmos.7.1-DDR.mkv torrent
Master Z Ip Man Legacy 2018 4K MULTI 2160p HDR WEB AC3 HEVC-DDR.mkv torrent
Money.Monster.2016.4K.MULTI.2160p.HDR.WEB.DTS-HDMA.5.1.HEVC-DDR.mkv torrent
Superbad.2007.Theatrical.Cut.4K.MULTI.2160p.HDR.WEB.AC3.HEVC-DDR.mkv torrent

ETTV Recommended Cam
The Rescue (2020) English HDCAM x264 AAC By Full4Movies torrent
The Father (2020) English HDCAM x264 AAC By Full4Movies torrent
One Night in Miami (2020) English HDCAM x264 AAC By Full4Movies torrent
It Snows in Benidorm (2020) 720p HDCAM [Hindi-Sub] x264 1XBET torrent

ETTV Recommended Foreign
Yu Pui Tsuen III (1996) UNRATED 720p BluRay x264 Eng Subs [Dual Audio] [Hindi DD 2.0 - Chinese 2.0] Exclusive By -=!Dr.STAR!=- torrent
Set Play 2020 720p Korean HDRip H264 BONE torrent
The.Day.I.Died.Unclosed.Case.2020.HDRip.720p.Korean.x264.AAC-Mkvking torrent
Your Honor (2020) 720p S-01 Ep-[01-12] HDRip [Hindi + Tamil + Telugu + Mal] x264 AAC ESub By Full4Movies torrent
Bending The Rules (2012) 720p BluRay x264 Eng Subs [Dual Audio] [Hindi DD 2.0 - English 5.1] Exclusive By -=!Dr.STAR!=- torrent
The Marksman (2021) English HDCAM x264 AAC By Full4Movies torrent

ETTV Recommended Music
[psychedelic rock] (2021) Miss Lava - Doom Machine [FLAC] [DarkAngie] torrent
50 Tracks Top Female Artists of 2020 (ETTV)  Playlist Spotify ~320  kbps Beats‚≠ź torrent
50 Tracks Top Male  Artists of 2020 (ETTV)  Playlist Spotify ~320  kbps Beats‚≠ź torrent
Sam Cooke - Eight Classic Albums (4CD) (2013) [FLAC] [DJ] torrent
UB40 - Gold - 2-CD-[MP3-320]-[TFM] torrent
[alternative folk] (2021) Wardruna - Kvitravn [FLAC] [DarkAngie] torrent


Download Torrent "The Host - Gwoemul (2006).1080p.H264.ita.kor.Ac3.sub.ita.eng.fre-MIRCrew"

IMDB Details
Description:

N/A

Genre:

N/A

Download Torrent (Magnet)
Download Torrent (File)

Seeds: 138
Leechers: 74

Uploaded by:
robbyrs


Category:
Movies > HD 1080p (Great for large screens)


Details
Title:The Host - Gwoemul (2006).1080p.H264.ita.kor.Ac3.sub.ita.eng.fre-MIRCrew
Description:
The Host - Gwoemul (2006).1080p.H264.ita.kor.Ac3.sub.ita.eng.fre-MIRCrew


NO FOUND ONLY ORIGINAL RELEASE


My release is always in double track audio italian and Original audio
for select it use VLC or dvd player home
not use wmp

ENGLISH SUBTITLE INSIDE

The Host - Gwoemul (2006)

Quality MIRCrew on HD 1080p da 2,3 gb







 

Titolo originale¬†¬† ¬†ÍīīŽ¨ľ
Gwoemul
Lingua originale    coreano, inglese
Paese di produzione    Corea del Sud
Anno    2006
Durata    119 min
Genere    fantascienza, orrore, drammatico
Regia    Bong Joon-ho
Sceneggiatura    Bong Joon-ho, Won-jun Ha, Chul-hyun Baek
Fotografia    Kim Hyung-ku
Montaggio    Kim Sun-min
Musiche    Lee Byung-woo



    Song Kang-ho: Park Gang-du
    Byeon Hie-bong: Park Hie-bong
    Park Hae-il: Park Nam-il
    Bae Doo-na: Park Nam-joo
    Go Ah-sung: Park Hyun-seo
    Paul Lazar: medico americano
    Scott Wilson: medico americano all'obitorio



Corea del Sud, 2000. In un obitorio un anatomopatologo americano ordina al suo assistente coreano di gettare nello scarico del lavandino il contenuto di oltre 200 bottiglie di formaldeide, ritenendole ormai scadute e inutilizzabili. Seppur con una certa riluttanza, l'assistente esegue gli ordini e centinaia di litri di formaldeide finiscono nel fiume Han.



A monster emerges from Seoul's Han River and begins attacking people. One victim's loving family does what it can to rescue her from its clutches.

   

















General

Complete name                            : The Host (2006).1080p.ita.Kor.sub.ita.fre.eng-MIRCrew\The Host (2006).1080p.ita.Kor.sub.ita.fre.eng-MIRCrew.mkv
Format                                   : Matroska
Format version                           : Version 4 / Version 2
File size                                : 2.37 GiB
Duration                                 : 1h 54mn
Overall bit rate                         : 2 951 Kbps
Movie name                               : MIRCrew
Encoded date                             : UTC 2020-09-18 21:23:22
Writing application                      : mkvmerge v26.0.0 ('In The Game') 64-bit
Writing library                          : Lavf54.63.100
COMMENT                                  : MIRCrew

Video
ID                                       : 1
Format                                   : AVC
Format/Info                              : Advanced Video Codec
Format profile¬†¬†¬†¬†¬†¬†¬†¬†¬†¬†¬†¬†¬†¬†¬†¬†¬†¬†¬†¬†¬†¬†¬†¬†¬†¬† : [email protected]
Format settings, CABAC                   : Yes
Format settings, ReFrames                : 2 frames
Codec ID                                 : V_MPEG4/ISO/AVC
Duration                                 : 1h 54mn
Bit rate                                 : 2 600 Kbps
Width                                    : 1 920 pixels
Height                                   : 1 040 pixels
Display aspect ratio                     : 16:9
Frame rate mode                          : Variable
Frame rate                               : 25.000 fps
Color space                              : YUV
Chroma subsampling                       : 4:2:0
Bit depth                                : 8 bits
Scan type                                : Progressive
Bits/(Pixel*Frame)                       : 0.052
Stream size                              : 2.01 GiB (85%)
Title                                    : MIRCrew
Writing library                          : x264 core 130 r2273
Encoding settings                        : cabac=1 / ref=2 / deblock=1:0:0 / analyse=0x1:0x131 / me=hex / subme=7 / psy=1 / psy_rd=1.00:0.00 / mixed_ref=0 / me_range=16 / chroma_me=1 / trellis=1 / 8x8dct=0 / cqm=0 / deadzone=21,11 / fast_pskip=1 / chroma_qp_offset=-2 / threads=6 / lookahead_threads=1 / sliced_threads=0 / nr=0 / decimate=1 / interlaced=0 / bluray_compat=0 / constrained_intra=0 / bframes=3 / b_pyramid=0 / b_adapt=1 / b_bias=0 / direct=3 / weightb=1 / open_gop=0 / weightp=2 / keyint=250 / keyint_min=25 / scenecut=40 / intra_refresh=0 / rc_lookahead=40 / rc=abr / mbtree=1 / bitrate=2600 / ratetol=1.0 / qcomp=0.60 / qpmin=10 / qpmax=69 / qpstep=4 / vbv_maxrate=24000 / vbv_bufsize=24000 / nal_hrd=none / ip_ratio=1.40 / aq=1:1.00
Language                                 : Italian
Default                                  : Yes
Forced                                   : No
DURATION                                 : 01:54:59.480000000
NUMBER_OF_FRAMES                         : 172487
NUMBER_OF_BYTES                          : 2211847248
_STATISTICS_WRITING_APP                  : mkvmerge v26.0.0 ('In The Game') 64-bit
_STATISTICS_WRITING_DATE_UTC             : 2020-09-19 10:13:01
_STATISTICS_TAGS                         : BPS DURATION NUMBER_OF_FRAMES NUMBER_OF_BYTES

Audio #1
ID                                       : 2
Format                                   : AC-3
Format/Info                              : Audio Coding 3
Mode extension                           : CM (complete main)
Codec ID                                 : A_AC3
Duration                                 : 1h 54mn
Bit rate mode                            : Constant
Bit rate                                 : 192 Kbps
Channel(s)                               : 2 channels
Channel positions                        : Front: L R
Sampling rate                            : 48.0 KHz
Bit depth                                : 16 bits
Compression mode                         : Lossy
Delay relative to video                  : -5ms
Stream size                              : 158 MiB (7%)
Title                                    : Ita Ac3 2.0
Language                                 : Italian
Default                                  : Yes
Forced                                   : No
DURATION                                 : 01:54:57.952000000
NUMBER_OF_FRAMES                         : 215561
NUMBER_OF_BYTES                          : 165550848
_STATISTICS_WRITING_APP                  : mkvmerge v26.0.0 ('In The Game') 64-bit
_STATISTICS_WRITING_DATE_UTC             : 2020-09-19 10:13:01
_STATISTICS_TAGS                         : BPS DURATION NUMBER_OF_FRAMES NUMBER_OF_BYTES

Audio #2
ID                                       : 3
Format                                   : AC-3
Format/Info                              : Audio Coding 3
Mode extension                           : CM (complete main)
Codec ID                                 : A_AC3
Duration                                 : 1h 54mn
Bit rate mode                            : Constant
Bit rate                                 : 192 Kbps
Channel(s)                               : 2 channels
Channel positions                        : Front: L R
Sampling rate                            : 48.0 KHz
Bit depth                                : 16 bits
Compression mode                         : Lossy
Delay relative to video                  : -5ms
Stream size                              : 158 MiB (7%)
Title                                    : Kor Ac3 2.0
Language                                 : Korean
Default                                  : No
Forced                                   : No
DURATION                                 : 01:54:59.584000000
NUMBER_OF_FRAMES                         : 215612
NUMBER_OF_BYTES                          : 165590016
_STATISTICS_WRITING_APP                  : mkvmerge v26.0.0 ('In The Game') 64-bit
_STATISTICS_WRITING_DATE_UTC             : 2020-09-19 10:13:01
_STATISTICS_TAGS                         : BPS DURATION NUMBER_OF_FRAMES NUMBER_OF_BYTES







[left]What do you want to do ?[/left]
New mail

Copy

Category:Movies > HD 1080p
Lang:Italian  Italian
Total Size:2.37 GB
Info Hash:ea61fc5611274abfc1cf7941e2a6d47b4d1ba7b2
Added By:robbyrs
Date Added:24-11-2020 16:19:41

  

Files

File List: 
 File Size
The Host (2006).1080p.ita.Kor.sub.ita.fre.eng-MIRCrew.eng.srt66.80 kB
The Host (2006).1080p.ita.Kor.sub.ita.fre.eng-MIRCrew.fre.srt70.79 kB
The Host (2006).1080p.ita.Kor.sub.ita.fre.eng-MIRCrew.ita.srt71.18 kB
The Host (2006).1080p.ita.Kor.sub.ita.fre.eng-MIRCrew.mkv2.37 GB



Comments

There are currently no comments. Be the first one to write something !