malayalam  ettv servant Outside the Wire 2021 monster hunter Monster Hunter 2020 WandaVision s01e01 WandaVision  The Marksman 2021 Run Hide Fight 2020 Private Eyes S04E10 Magnum P.I. S03E06 wwe MacGyver S05E06 yts A Discovery of Witches S02E03 Young Sheldon S04E06 Gold Rush S11E13 the blacklist Last Man Standing S09E04 etmovies Legacies s03e01 Batman Soul of the Dragon 2021 hindi The White Tiger 2021 private eyes Gold Rush Synchronic 2020 Redemption Day 2021 madam chief minister ddr Mom S08E06 the white tiger  WandaVision S01E02 the stand Superstore S06E06 Greenland 2020 Tenet 2020 The Stand S01E06 master 2021 Walker S01E01 rq.mp4 Fatale 2020 ita wonder woman 1984 2020 jeet ki zid master The Croods A New Age 2020 Gold Rush White Water S04E08 Servant s02e02 Locked Down 2021 wandavision s01e03 young sheldon Promising Young Woman 2020 TANDAV Honest Thief 2020 etrg Xxx Law and Order SVU S22E06 Real Time with Bill Maher S19E02 Horizon Line 2020 hindi 2021 Hells Kitchen S19E03 Shadow in the Cloud 2020 tamil The Blacklist S08E03 Fate The Winx Saga S01E01 Soul 2020 Legacies Blue Bloods S11E05 News of the World 2020 evo ethd 
Warning! Use a VPN When Downloading Torrents!
Your IP Address is 3.237.205.144. Location United States
Your Internet Provider can see when you download torrents! Hide your IP Address with a VPN
ETTV warns: You should use VPN to hide your torrenting. HIDE ME NOW
ETTV Recommended TV Shows
WWE Friday Night SmackDown 2021 01 22 HDTV x264-Star [TJET] torrent
Blue.Bloods.S11E05.720p.HDTV.x264-SYNCOPY torrent
Gold.Rush.S11E13.Got.Your.Six.720p.WEBRip.x264-CAFFEiNE torrent
Gold.Rush.White.Water.S04E08.Dustin.to.the.Rescue.720p.WEBRip.x264-CAFFEiNE torrent
Last.Man.Standing.US.S09E04.REPACK.720p.WEB.h264-KOGi torrent
MacGyver.2016.S05E06.720p.HDTV.x264-SYNCOPY torrent
Magnum.P.I.2018.S03E06.720p.HDTV.x264-SYNCOPY torrent
The.Blacklist.S08E03.720p.HDTV.x264-SYNCOPY torrent

ETTV Recommended SD
Spiral.2020.BRRip.XviD.AC3-EVO torrent
Batman.Soul.of.the.Dragon.2021.BRRip.XviD.AC3-EVO torrent
On.Site.2020.HDRip.XviD.AC3-EVO torrent
The.White.Tiger.2021.HDRip.XviD.AC3-EVO torrent

ETTV Recommended HD
Body.of.Water.2020.HDRip.XviD.AC3-EVO torrent
Todd (2021) 720p English HDRip x264 AAC By Full4Movies torrent
Lost.Girls.and.Love.Hotels.2020.BRRip.XviD.AC3-EVO torrent
Elektra (2005) [Jennifer Garner] 1080p H264 DolbyD 5.1 ūüíé nickarad torrent

ETTV Recommended UHD
Police.2020.HDR.2160p.WEB.DDP5.1.HEVC-DDR.mkv torrent
The.Climb.2020.HDR.2160p.WEB.DDP5.1.HEVC-DDR.mkv torrent
2012.2009.Multi.UHD.BluRay.2160p.HDR.HEVC.TrueHD.Atmos.7.1-DDR.mkv torrent
Master Z Ip Man Legacy 2018 4K MULTI 2160p HDR WEB AC3 HEVC-DDR.mkv torrent
Money.Monster.2016.4K.MULTI.2160p.HDR.WEB.DTS-HDMA.5.1.HEVC-DDR.mkv torrent
Superbad.2007.Theatrical.Cut.4K.MULTI.2160p.HDR.WEB.AC3.HEVC-DDR.mkv torrent

ETTV Recommended Cam
The Rescue (2020) English HDCAM x264 AAC By Full4Movies torrent
The Father (2020) English HDCAM x264 AAC By Full4Movies torrent
One Night in Miami (2020) English HDCAM x264 AAC By Full4Movies torrent
It Snows in Benidorm (2020) 720p HDCAM [Hindi-Sub] x264 1XBET torrent

ETTV Recommended Foreign
Yu Pui Tsuen III (1996) UNRATED 720p BluRay x264 Eng Subs [Dual Audio] [Hindi DD 2.0 - Chinese 2.0] Exclusive By -=!Dr.STAR!=- torrent
Set Play 2020 720p Korean HDRip H264 BONE torrent
The.Day.I.Died.Unclosed.Case.2020.HDRip.720p.Korean.x264.AAC-Mkvking torrent
Your Honor (2020) 720p S-01 Ep-[01-12] HDRip [Hindi + Tamil + Telugu + Mal] x264 AAC ESub By Full4Movies torrent
Bending The Rules (2012) 720p BluRay x264 Eng Subs [Dual Audio] [Hindi DD 2.0 - English 5.1] Exclusive By -=!Dr.STAR!=- torrent
The Marksman (2021) English HDCAM x264 AAC By Full4Movies torrent

ETTV Recommended Music
[ambient, jazz] (2021) Patricia Brennan - Maquishti [FLAC] [DarkAngie] torrent
[psychedelic rock] (2021) Miss Lava - Doom Machine [FLAC] [DarkAngie] torrent
50 Tracks Top Female Artists of 2020 (ETTV)  Playlist Spotify ~320  kbps Beats‚≠ź torrent
50 Tracks Top Male  Artists of 2020 (ETTV)  Playlist Spotify ~320  kbps Beats‚≠ź torrent
Sam Cooke - Eight Classic Albums (4CD) (2013) [FLAC] [DJ] torrent
UB40 - Gold - 2-CD-[MP3-320]-[TFM] torrent


Download Torrent "Siberia (2018).1080p.H264.ita.eng.Ac3-5.1.sub.ita-MIRCrew"

IMDB Details
Description:

When an American diamond trader's Russian partner goes missing, he journeys to Siberia in search of him, but instead begins a love affair.

Genre:

Crime, Romance, Thriller

Download Torrent (Magnet)
Download Torrent (File)

Seeds: 284
Leechers: 114

Uploaded by:
robbyrs


Category:
Movies > HD 1080p (Great for large screens)


Details
Title:Siberia (2018).1080p.H264.ita.eng.Ac3-5.1.sub.ita-MIRCrew
Description:
Siberia (2018).1080p.H264.ita.eng.Ac3-5.1.sub.ita-MIRCrew


NO FOUND ONLY ORIGINAL RELEASE


My release is always in double track audio italian and Original audio
for select it use VLC or dvd player home
not use wmp

Siberia (2018)

Quality MIRCrew on HD 1080p da 2,4 gb







 

Regista: Matthew Ross
Genere: Sentimentale, Thriller
Anno: 2018
Paese: USA
Regia: Matthew Ross
Sceneggiatura: Scott B. Smith
Fotografia: Eric Koretz
Montaggio: Louise Ford
Musiche: Danny Bensi



Keanu Reeves, Molly Ringwald, Ana Ularu, Aleks Paunovic, Veronica Ferres, Eugene Lipinski, Dmitry Chepovetsky



Un mercante di diamanti americano va in Russia per vendere dei rari diamanti blu di dubbia origie. Quando l'affare inizia a sfumare, viene coinvolto in un'ossessiva relazione con la proprietaria russa di un caffé in una piccola città siberiana.



When an American diamond trader's Russian partner goes missing, he journeys to Siberia in search of him, but instead begins a love affair

   












General

Complete name                            : Siberia (2018).1080p.h264.ita.eng.sub.ita-MIRCrew\Siberia (2018).1080p.h264.ita.eng.sub.ita-MIRCrew.mkv
Format                                   : Matroska
Format version                           : Version 2
File size                                : 2.40 GiB
Duration                                 : 1h 39mn
Overall bit rate                         : 3 440 Kbps
Movie name                               : MIRCrew
Encoded date                             : UTC 2020-11-20 22:45:27
Writing application                      : mkvmerge v5.8.0 ('No Sleep / Pillow') built on Sep  2 2012 15:37:04
Writing library                          : Lavf54.63.100
COMMENT                                  : MIRCrew

Video
ID                                       : 1
Format                                   : AVC
Format/Info                              : Advanced Video Codec
Format profile¬†¬†¬†¬†¬†¬†¬†¬†¬†¬†¬†¬†¬†¬†¬†¬†¬†¬†¬†¬†¬†¬†¬†¬†¬†¬† : [email protected]
Format settings, CABAC                   : Yes
Format settings, ReFrames                : 2 frames
Codec ID                                 : V_MPEG4/ISO/AVC
Duration                                 : 1h 39mn
Bit rate                                 : 2 475 Kbps
Nominal bit rate                         : 2 600 Kbps
Width                                    : 1 920 pixels
Height                                   : 800 pixels
Display aspect ratio                     : 2.40:1
Frame rate mode                          : Variable
Frame rate                               : 25.000 fps
Color space                              : YUV
Chroma subsampling                       : 4:2:0
Bit depth                                : 8 bits
Scan type                                : Progressive
Bits/(Pixel*Frame)                       : 0.064
Stream size                              : 1.73 GiB (72%)
Title                                    : MIRCrew
Writing library                          : x264 core 130 r2273
Encoding settings                        : cabac=1 / ref=2 / deblock=1:-1:-1 / analyse=0x1:0x131 / me=hex / subme=7 / psy=1 / psy_rd=1.00:0.10 / mixed_ref=0 / me_range=16 / chroma_me=1 / trellis=1 / 8x8dct=0 / cqm=0 / deadzone=21,11 / fast_pskip=1 / chroma_qp_offset=-3 / threads=9 / lookahead_threads=1 / sliced_threads=0 / nr=0 / decimate=1 / interlaced=0 / bluray_compat=0 / constrained_intra=0 / bframes=3 / b_pyramid=0 / b_adapt=1 / b_bias=0 / direct=3 / weightb=1 / open_gop=0 / weightp=2 / keyint=250 / keyint_min=25 / scenecut=40 / intra_refresh=0 / rc_lookahead=40 / rc=abr / mbtree=1 / bitrate=2600 / ratetol=1.0 / qcomp=0.60 / qpmin=10 / qpmax=69 / qpstep=4 / vbv_maxrate=24000 / vbv_bufsize=24000 / nal_hrd=none / ip_ratio=1.40 / aq=1:1.00
Language                                 : Italian
Default                                  : Yes
Forced                                   : No
DURATION                                 : 01:39:52.680000000
NUMBER_OF_FRAMES                         : 149817
NUMBER_OF_BYTES                          : 6628724424
_STATISTICS_WRITING_APP                  : mkvmerge v45.0.0 ('Heaven in Pennies') 64-bit
_STATISTICS_WRITING_DATE_UTC             : 2020-11-20 22:45:27
_STATISTICS_TAGS                         : BPS DURATION NUMBER_OF_FRAMES NUMBER_OF_BYTES

Audio #1
ID                                       : 2
Format                                   : AC-3
Format/Info                              : Audio Coding 3
Mode extension                           : CM (complete main)
Codec ID                                 : A_AC3
Duration                                 : 1h 39mn
Bit rate mode                            : Constant
Bit rate                                 : 448 Kbps
Channel(s)                               : 6 channels
Channel positions                        : Front: L C R, Side: L R, LFE
Sampling rate                            : 48.0 KHz
Bit depth                                : 16 bits
Compression mode                         : Lossy
Delay relative to video                  : -5ms
Stream size                              : 320 MiB (13%)
Title                                    : Ita Ac3 5.1
Language                                 : Italian
Default                                  : No
Forced                                   : No
DURATION                                 : 01:39:52.672000000
NUMBER_OF_FRAMES                         : 187271
NUMBER_OF_BYTES                          : 479413760
_STATISTICS_WRITING_APP                  : mkvmerge v45.0.0 ('Heaven in Pennies') 64-bit
_STATISTICS_WRITING_DATE_UTC             : 2020-11-20 22:45:27
_STATISTICS_TAGS                         : BPS DURATION NUMBER_OF_FRAMES NUMBER_OF_BYTES

Audio #2
ID                                       : 3
Format                                   : AC-3
Format/Info                              : Audio Coding 3
Mode extension                           : CM (complete main)
Codec ID                                 : A_AC3
Duration                                 : 1h 39mn
Bit rate mode                            : Constant
Bit rate                                 : 448 Kbps
Channel(s)                               : 6 channels
Channel positions                        : Front: L C R, Side: L R, LFE
Sampling rate                            : 48.0 KHz
Bit depth                                : 16 bits
Compression mode                         : Lossy
Delay relative to video                  : -5ms
Stream size                              : 320 MiB (13%)
Title                                    : Eng Ac3 5.1
Language                                 : English
Default                                  : No
Forced                                   : No
DURATION                                 : 01:39:52.640000000
NUMBER_OF_FRAMES                         : 561810
NUMBER_OF_BYTES                          : 1130361788
_STATISTICS_WRITING_APP                  : mkvmerge v45.0.0 ('Heaven in Pennies') 64-bit
_STATISTICS_WRITING_DATE_UTC             : 2020-11-20 22:45:27
_STATISTICS_TAGS                         : BPS DURATION NUMBER_OF_FRAMES NUMBER_OF_BYTES








[left]What do you want to do ?[/left]
New mail

Copy

Category:Movies > HD 1080p
Lang:Italian  Italian
Total Size:2.40 GB
Info Hash:8635c940820fe72b431be567a344bd6fe42f1fcd
Added By:robbyrs
Date Added:24-11-2020 12:54:07

  

Files

File List: 
 File Size
Siberia (2018).1080p.h264.ita.eng.sub.ita-MIRCrew.ita.srt57.88 kB
Siberia (2018).1080p.h264.ita.eng.sub.ita-MIRCrew.mkv2.40 GB



Comments

There are currently no comments. Be the first one to write something !