Let Him Go 2020 Star Trek Discovery S03E07 The New Mutants 2020 The Mandalorian S02E02 Gold Rush S11E06 Tenet 2020 Elf 2003 The Flight Attendant S01E01 NCIS Gold Rush White Water S04E03 evo the flight attendant ludo Big Sky S01E02 xxx NeXt freaky 2020 tenet Honest Thief 2020 Unhinged 2020 hindi 2020 neXt S01E05 Mulan 2020 ethd Home Alone 1990 The Flight Attendant S01E03 0 The Mandalorian S02E01 wwe Superintelligence 2020 The Flight Attendant S01E02 Run 2020 mandalorian Roald Dahls The Witches 2020 Star Trek Discovery The Mandalorian S02E04 rq.mp4 greys anatomy The Mandalorian S02E05 Jingle Jangle A Christmas Journey 2020 tamil Fatman 2020 S.W.A.T. S04E04 Hindi Warrior S02E09 ettv The Walking Dead The Masked Singer S04E09 scam 1992 The undoing s01e05 Jiu Jitsu 2020 Naxalbari Supernatural young sheldon The Mandalorian  warrior The Christmas Chronicles Part Two 2020 Boss Level 2020 yts gold rush etmovies The Mandalorian S02E03 ddr The Croods A New Age 2020 etrg 2160P mirzapur Happiest Season 2020 Greenland 2020 His Dark Materials f1 the undoing mandalorian s02e05 
Warning! Use a VPN When Downloading Torrents!
Your IP Address is 3.237.66.86. Location United States
Your Internet Provider can see when you download torrents! Hide your IP Address with a VPN
ETTV warns: You should use VPN to hide your torrenting. HIDE ME NOW
ETTV Recommended TV Shows
WWE Friday Night SmackDown 2020 11 27 1080p HDTV x264-Star [TJET] torrent
F2. 2020. R11. Bahrain Weekend On Sky F1 HD. 1080P torrent
Gold.Rush.S11E06.Big.Red.vs.Sluicifer.WEBRip.x264-CAFFEiNE torrent
The.Astronauts.S01E04.WEBRip.x264-ION10 torrent
Warrior.S02E09.PROPER.WEBRip.x264-ION10 torrent
Impossible.Engineering.Series.9.Part.1.Largest.Plane.Stratolaunch.1080p.HDTV.x264.AAC,MVGroup.org.mp4 torrent
Continuum.S04.720p.x265-ZMNT torrent
WWE The Best Of WWE Ep 55 The Best Of Sasha Banks 1500k 720p WEBRip h264-TJ [TJET] torrent

ETTV Recommended SD
Midnight.at.the.Magnolia.2020.HDRip.XviD.AC3-EVO torrent
Tenet.2020.HDRip.XviD.AC3-EVO torrent
After We Collided.2020.BDRip.XviD-EVO torrent
Riding.With.Sugar.2020.HDRip.XviD.AC3-EVO torrent

ETTV Recommended HD
Parallels - Sci-Fi 2015 Eng Subs 1080p [H264-mp4] torrent
Tenet.2020.1080p.HDRip.X264.AC3-EVO torrent
The McMasters  (Western 1970)  Burl Ives  720p torrent
Criminal 2016 BluRay 1080p DTS AC3 x264-3Li torrent

ETTV Recommended UHD
Beverly.Hills.Cop.1984.MULTi.2160p.UHD.Bluray.DTS-HDMA.5.1.HEVC-DDR.mkv torrent
Fearless.2020.2160p.HDR.WEB.DDP.5.1.HEVC-DDR.mkv torrent
Groundhog.Day.1993.MULTi.2160p.UHD.Blu-ray.HEVC.Atmos.TrueHD.7.1-DDR.mkv torrent
Let.Him.Go.2020.2160p.HDR.WEB.DDP.5.1.HEVC-DDR.mkv torrent
The.Great.Gatsby.2013.UHD.2160p.HDR.BluRay.DTS-HDMA.5.1.HEVC-DDR.mkv torrent
King.of.New.York.1990.2160p.HDR.Blu-ray.DTS-HD.MA.5.1.HEVC-DDR.mkv torrent

ETTV Recommended Cam
The Comeback Trail 2020 720p HDCAM-C1NEM4 torrent
Let Him Go (2020) 720p HDCAM [Hindi-Sub] x264 1XBET torrent

ETTV Recommended Foreign
Transmorphers (2007) 720p WEB-DL x264 [Dual Audio] [Hindi DD 2.0 - English 5.1] Exclusive By -=!Dr.STAR!=- torrent
Wild Rose (2018) A Proposito di Rose. BluRay 1080p.H264 Ita Eng AC3 5.1 Sub Ita Eng ODS torrent
Samjin Company English Class 2020 720p Korean H264 BONE torrent
The Witches - Le streghe (2020).720p.H264.ita.eng.Ac3-5.1.sub.ita.eng-MIRCrew torrent
Undine.2020.1080p.BRRip.x264.AC3.HORiZON-ArtSubs torrent
Train to Busan 2 - Peninsula (2020) 720p (Cleaned) Hindi Dubbed HDRip x264 AAC By Full4Movies torrent

ETTV Recommended Music
Jennifer Lopez - In The Morning {Single} (2020) Mp3 320kbps [PMEDIA] ⭐️ torrent
The Official UK Top 40 Singles Chart (27.11.2020) Mp3 (320kbps) [Hunter] torrent
Supergrass - Live on Other Planets (2CD) (2020) (320) [DJ] torrent
100 Tracks Relax & Unwind Playlist Spotify  (ETTV)~ 320  kbps Beats⭐ torrent
[indie-rock] (2020) The Nude Party - Midnight Manor [FLAC] [DarkAngie] torrent
Pink Floyd: Delicate Sound Of Thunder (2020)[BDRemux 1080p x 264 by alE13 DTS/PCM][Eng] torrent


Download Torrent "Mad Max Fury Road (2015) HDRip 720p (DD5.1) [Hindi Dubbed - English] HDRip ..."

IMDB Details
Description:

In a post-apocalyptic wasteland, a woman rebels against a tyrannical ruler in search for her homeland with the aid of a group of female prisoners, a psychotic worshiper, and a drifter named Max.

Genre:

Action, Adventure, Sci-Fi, Thriller

Download Torrent (Magnet)
Download Torrent (File)

Seeds: 27
Leechers: 7

Uploaded by:
full4movies


Category:
Movies > Dubs/Dual Audio


Details
Title:Mad Max Fury Road (2015) HDRip 720p (DD5.1) [Hindi Dubbed - English] HDRip ...
Description:


Visit Us = https://full4movies.xyz/

General
Complete name                  : Mad Max Fury Road (2015) HDRip 720p (DD5.1) [Hindi Dubbed - English] HDRip x264 AC3 ESub By Full4Movies.mkv
Format                         : Matroska
Format version                 : Version 4
File size                      : 1 004 MiB
Duration                       : 2 h 0 min
Overall bit rate               : 1 166 kb/s
Encoded date                   : UTC 2020-11-21 14:56:55
Writing application            : mkvmerge v8.0.0 ('Til The Day That I Die') 32bit
Writing library                : libebml v1.3.1 + libmatroska v1.4.2

Video
ID                             : 1
Format                         : AVC
Format/Info                    : Advanced Video Codec
Format profile                 : [email protected]
Format settings                : CABAC / 4 Ref Frames
Format settings, CABAC         : Yes
Format settings, Reference fra : 4 frames
Codec ID                       : V_MPEG4/ISO/AVC
Duration                       : 2 h 0 min
Bit rate                       : 910 kb/s
Width                          : 1 280 pixels
Height                         : 536 pixels
Display aspect ratio           : 2.40:1
Frame rate mode                : Constant
Frame rate                     : 23.976 (24000/1001) FPS
Original frame rate            : 23.976 (23976/1000) FPS
Color space                    : YUV
Chroma subsampling             : 4:2:0
Bit depth                      : 8 bits
Scan type                      : Progressive
Bits/(Pixel*Frame)             : 0.055
Stream size                    : 783 MiB (78%)
Writing library                : x264 core 123 r2189 35cf912
Language                       : English
Default                        : Yes
Forced                         : No
Color range                    : Limited
Color primaries                : BT.709
Matrix coefficients            : BT.709

Audio #1
ID                             : 2
Format                         : AC-3
Format/Info                    : Audio Coding 3
Commercial name                : Dolby Digital
Codec ID                       : A_AC3
Duration                       : 2 h 0 min
Bit rate mode                  : Constant
Bit rate                       : 160 kb/s
Channel(s)                     : 6 channels
Channel layout                 : L R C LFE Ls Rs
Sampling rate                  : 48.0 kHz
Frame rate                     : 31.250 FPS (1536 SPF)
Compression mode               : Lossy
Stream size                    : 138 MiB (14%)
Language                       : Hindi
Service kind                   : Complete Main
Default                        : Yes
Forced                         : Yes

Audio #2
ID                             : 3
Format                         : AAC LC
Format/Info                    : Advanced Audio Codec Low Complexity
Codec ID                       : A_AAC-2
Duration                       : 2 h 0 min
Bit rate                       : 93.7 kb/s
Channel(s)                     : 2 channels
Channel layout                 : L R
Sampling rate                  : 48.0 kHz
Frame rate                     : 46.875 FPS (1024 SPF)
Compression mode               : Lossy
Stream size                    : 80.7 MiB (8%)
Language                       : English
Default                        : No
Forced                         : No

Text
ID                             : 4
Format                         : UTF-8
Codec ID                       : S_TEXT/UTF8
Codec ID/Info                  : UTF-8 Plain Text
Duration                       : 1 h 51 min
Bit rate                       : 30 b/s
Count of elements              : 1045
Stream size                    : 24.9 KiB (0%)
Language                       : English
Default                        : Yes
Forced                         : No

Screen Shoots
Category:Movies > Dubs/Dual Audio
Lang:Hindi  Hindi
Total Size:1,004 MB
Info Hash:b0646d37a342de5f25448139981b9dce1498e796
Added By:full4movies
Date Added:22-11-2020 05:29:36

  

Files

File List: 
 File Size
Mad Max Fury Road (2015) HDRip 720p (DD5.1) [Hindi Dubbed - English] HDRip x264 AC3 ESub By Full4Movies.mkv1,004 MB



Comments

There are currently no comments. Be the first one to write something !