Superintelligence 2020 Star Trek Discovery ethd mandalorian s02e06 Greys Anatomy S17E04 The Mandalorian Freaky 2020 The Mandalorian s02e06 SEAL Team s04e02 hindi yts rq.mp4 suraj pe mangal bhari The Flight Attendant S01E03 Star Trek Discovery S03E07 The Flight Attendant His Dark Materials ncis Run 2020 Greenland 2020 Star Trek station 19 s04e03 tamil wwe The Good Doctor S04E05 mandalorian Tenet 2020 Young Sheldon S04E04 Big Sky s01e03 young sheldon next ettv The Croods A New Age 2020 Greys Anatomy Freaky xxx For Life S02E03 Fatman 2020 ddr The Mandalorian S02E03 Law and Order SVU S22E03 The Mandalorian S02E04 tenet The New Mutants 2020 The Masked Singer s04e10 The Undoing S01E05 star trek discovery s03e08 The Mandalorian s02e05 Let Him Go 2020 2160p  The Christmas Chronicles Part Two 2020 etrg The Flight Attendant S01E01 neXt S01E06 hindi 2020 Station 19 The Flight Attendant s01e05 mom s08e04 The Conners S03E06 The Undoing S01E06 0 The Flight Attendant S01E02 SEAL Team S04E01 seal team Jiu Jitsu 2020 The Flight Attendant s01e04 the undoing The Undoing S01E01 Honest Thief 2020 etmovies The Curse of Oak Island S08E04 evo 
Warning! Use a VPN When Downloading Torrents!
Your IP Address is 3.237.67.179. Location United States
Your Internet Provider can see when you download torrents! Hide your IP Address with a VPN
ETTV warns: You should use VPN to hide your torrenting. HIDE ME NOW
ETTV Recommended TV Shows
A.Million.Little.Things.S03E02.720p.HDTV.x264-SYNCOPY torrent
Greys.Anatomy.S17E04.720p.HDTV.x264-SYNCOPY torrent
Law.and.Order.SVU.S22E03.720p.HDTV.x264-SYNCOPY torrent
Mom.S08E04.720p.HDTV.x264-SYNCOPY torrent
Stephen.Colbert.2020.12.03.Christopher.Krebs.720p.WEB.H264-JEBAITED torrent
The.Daily.Show.2020.12.03.720p.WEB.h264-BAE torrent
The.Mandalorian.S02E06.WEBRip.x264-ION10 torrent
WWE Friday Night SmackDown 2020 12 04 HDTV x264-NWCHD [TJET] torrent

ETTV Recommended SD
The.Loss.Adjuster.2020.HDRip.XviD.AC3-EVO torrent
The.Knight.and.the.Princess.2020.HDRip.XviD.AC3-EVO torrent
The.Taverna.2020.HDRip.XviD.AC3-EVO torrent
Honest.Thief.2020.BDRip.XviD.AC3-EVO torrent

ETTV Recommended HD
Avengement (2019) [Scott Adkins] 1080p H264 DolbyD 5.1 ūüíé nickarad torrent
Free.Lunch.Express.2020.HDRip.XviD.AC3-EVO torrent
Godmothered.2020.HDRip.XviD.AC3-EVO torrent
Black.Bear.2020.HDRip.XviD.AC3-EVO torrent

ETTV Recommended UHD
The.Doorman.2020.MULTi.2160p.BluRay.SDR.DTS-HD.MA.5.1.HEVC-DDR.mkv torrent
Possessor.2020.HDR.2160p.WEB.DDP5.1.HEVC-DDR.mkv torrent
Life.in.a.Year.2020.HDR.2160p.WEB.DDP5.1.HEVC-DDR.mkv torrent
Coming.To.America.1988.MULTi.2160p.HDR.Blu-Ray.DTS-HDMA.5.1.HEVC-DDR.mkv torrent
Collateral.2004.MULTi.2160p.BluRay.HEVC.DTS-HD.MA.5.1-DDR.mkv torrent
Blade.1988.MULTi.2160p.HDR.Bluray.Atmos.7.1.HEVC-DDR.mkv torrent

ETTV Recommended Cam
The Comeback Trail 2020 720p HDCAM-C1NEM4 torrent
Let Him Go (2020) 720p HDCAM [Hindi-Sub] x264 1XBET torrent

ETTV Recommended Foreign
Voces (2020) ITA-SPA Ac3 5.1 WebRip 1080p H264 [ArMor] torrent
Anastasia: Once Upon a Time (2020).1080p.H264.ita.Ac3-5.1.sub.ita.eng-MIRCrew torrent
Waiting for the Barbarians (2019) ITA-ENG Ac3 5.1 BDRip 1080p H264 [ArMor] torrent
Berlin Alexanderplatz 2020 German PROPER 720p BluRay HEVC x265-RMTeam  torrent
Azem 4 : Alacakaranlik (2016) 720p WEBRip x264 Eng Subs [Dual Audio] [Hindi DD 2.0 - Turkish 2.0] Exclusive By -=!Dr.STAR!=- torrent
Needle Park Baby 2020 GERMAN 1080p BluRay DD5.1 HEVC x265-RMTeam  torrent

ETTV Recommended Music
Eric Clapton - Album Pack YERAYCITO MASTER SERIES SE torrent
The Rolling Stones - Turning Blue & Lonesome (2020) Mp3 320kbps [PMEDIA] ‚≠źÔłŹ torrent
VA - Disco Music - The Greatest Disco Anthology Ever (3CD) (2010) [FLAC] [DJ] torrent
The White Stripes - 2020 - The White Stripes Greatest Hits [FLAC] torrent
80 Track Chillout Lounge Playlist Spotify  (ETTV)~ 320  kbps Beats‚≠ź torrent
100 Tracks ~Soft Rock (ETTV)  Playlist Spotify~320  kbps Beats‚≠ź torrent


Download Torrent "The.Nest.2020.HDRip.XviD.B4ND1T69"

IMDB Details
Description:

Life for an entrepreneur and his American family begins to take a twisted turn after moving into an English country manor.

Genre:

Drama, Romance

Download Torrent (Magnet)
Download Torrent (File)

Seeds: 152
Leechers: 23

Uploaded by:
B4ND1T69


Category:
Movies > XviD


Details
Title:The.Nest.2020.HDRip.XviD.B4ND1T69
Description:
The.Nest.2020.HDRip.XviD.B4ND1T69



Director: Sean Durkin
Writer: Sean Durkin
Stars: Jude Law, Carrie Coon, Oona Roche

Plot/Story:
Life for an entrepreneur and his American family begins to take a twisted turn after moving into an English country manor.

General
Complete name               : The.Nest.2020.HDRip.XviD.B4ND1T69.avi
Format                      : AVI
Format/Info                 : Audio Video Interleave
File size                   : 602 MiB
Duration                    : 1 h 47 min
Overall bit rate            : 783 kb/s
Subtitles                   : Yes...Included(HI)

Video
ID                          : 0
Format                      : MPEG-4 Visual
Format profile¬†¬†¬†¬†¬†¬†¬†¬†¬†¬†¬†¬†¬† : Advanced [email protected]
Format settings, BVOP       : 2
Format settings, QPel       : No
Format settings, GMC        : No warppoints
Format settings, Matrix     : Default (H.263)
Codec ID                    : XVID
Codec ID/Hint               : XviD
Duration                    : 1 h 47 min
Bit rate                    : 642 kb/s
Width                       : 720 pixels
Height                      : 384 pixels
Display aspect ratio        : 1.85:1
Frame rate                  : 23.976 (24000/1001) FPS
Color space                 : YUV
Chroma subsampling          : 4:2:0
Bit depth                   : 8 bits
Scan type                   : Progressive
Compression mode            : Lossy
Bits/(Pixel*Frame)          : 0.097
Stream size                 : 493 MiB (82%)
Writing library             : XviD 64

Audio
ID                          : 1
Format                      : MPEG Audio
Format version              : Version 1
Format profile              : Layer 3
Codec ID                    : 55
Codec ID/Hint               : MP3
Duration                    : 1 h 47 min
Bit rate mode               : Constant
Bit rate                    : 128 kb/s
Channel(s)                  : 2 channels
Sampling rate               : 48.0 kHz
Compression mode            : Lossy
Stream size                 : 98.4 MiB (16%)
Alignment                   : Aligned on interleaves
Interleave, duration        : 24  ms (0.58 video frame)

Screenshots:










Please Seed For As Long As Possible
Or At Least 1:1 Ratio...Thanks
Enjoy Peeps

Category:Movies > XviD
Lang:English  English
Total Size:602 MB
Info Hash:5e962c00c6f9136a562f2508a91287aac6aca09a
Added By:B4ND1T69
Date Added:21-11-2020 18:30:08

Files

File List: 
 File Size
Downloaded from 1337x.txt61.00 B
Downloaded from ETTV.txt55.00 B
Downloaded from newkatcr.co.txt139.00 B
Downloaded from ProStyleX.txt54.00 B
Downloaded from The Pirate Bay.txt57.00 B
The.Nest.2020.HDRip.XviD.B4ND1T69.avi602 MB
The.Nest.2020.HDRip.XviD.B4ND1T69.srt88.63 kB



Comments

There are currently no comments. Be the first one to write something !