mandalorian s.w.a.t ddr The Christmas Chronicles Part Two 2020 big sky scam 1992  Big Sky S01E01 neXt S01E05 The Undoing S01E05 aew The Goldbergs S08E06 Freaky 2020 The Good Doctor S04E04 for life Animaniacs s06e09 720p Hindi 2020 Jiu Jitsu 2020 rq.mp4 minx 0 NeXt The Flight Attendant The Mandalorian  Hindi supernatural 2160p The Curse of Oak Island S08E03 FBI S03E02 Let Him Go 2020 etrg evo The Amazing Race S32E09 The Mandalorian S02E04 tamil Greenland 2020 wwe Tenet The Croods A New Age 2020 the good doctor Jingle Jangle A Christmas Journey 2020 yts FBI Most Wanted S02E02 The Mandalorian S02E03 star trek discovery etmovies Jallikattu The Mandalorian S02E02 marvel week Star Trek discovery s03e07 his dark materials mulan 2020 Star trek  Honest Thief 2020 ethd The New Mutants 2020 Roald Dahls The Witches 2020 Ludo Tenet 2020 ettv Big Sky S01E02 Animaniacs s06e11 720p xxx The Conners s03e05 Fatman 2020 The Mandalorian S02E01 For Life S02E02 Beyond Oak Island S01E02 FBI S.W.A.T. S04E04 Run 2020 star trek discovery s03e06 Ncis NCIS S18E02 
Warning! Use a VPN When Downloading Torrents!
Your IP Address is 34.237.138.69. Location United States
Your Internet Provider can see when you download torrents! Hide your IP Address with a VPN
ETTV warns: You should use VPN to hide your torrenting. HIDE ME NOW
ETTV Recommended TV Shows
The.Conners.S03E05.720p.HDTV.x264-SYNCOPY torrent
The.Goldbergs.2013.S08E06.720p.HDTV.x264-SYNCOPY torrent
Titan FC 65 720p WEB-DL H264 Fight-BB torrent
The.Walking.Dead.World.Beyond.S01E10.1080p.WEB.H264-CAKES torrent
Nat.Geo.Sea.of.Shadows.1080p.x265.AAC.MVGroup.org.mkv torrent
Miz & Mrs S02E11 Miz-ter Mom HDTV x264-NWCHD [TJET] torrent
The.Masked.Singer.S04E09.720p.WEB.h264-KOGi torrent
The.Mandalorian.S02E05.1080p.WEB.H264-GGWP torrent
Hells.Kitchen.US.S19E11.WEBRip.x264-ION10 torrent
NJPW 2020 11 25 Best Of The Super Jr.27 Day 5 ENGLISH 720p WEB h264-LATE [TJET] torrent

ETTV Recommended SD
Life.in.a.Year.2020.HDRip.XviD.AC3-EVO torrent
Faith.2020.HDRip.XviD.AC3-EVO torrent
Black.Beauty.2020.HDRip.XviD.AC3-EVO torrent
A.Christmas.Break.2020.HDRip.XviD.AC3-EVO torrent

ETTV Recommended HD
Come Away (2020) 720p HDRip [Hindi-Sub] x264 torrent
The.Irishman.2019.1080p.BluRay.H264.AAC-RARBG torrent
Dead Man Down (2013) [Colin Farrell] 1080p H264 DolbyD 5.1 ūüíé nickarad torrent
Snow Dog  (Western 1950)  Kirby Grant  720p torrent

ETTV Recommended UHD
Beverly.Hills.Cop.1984.MULTi.2160p.UHD.Bluray.DTS-HDMA.5.1.HEVC-DDR.mkv torrent
Fearless.2020.2160p.HDR.WEB.DDP.5.1.HEVC-DDR.mkv torrent
Groundhog.Day.1993.MULTi.2160p.UHD.Blu-ray.HEVC.Atmos.TrueHD.7.1-DDR.mkv torrent
Let.Him.Go.2020.2160p.HDR.WEB.DDP.5.1.HEVC-DDR.mkv torrent
The.Great.Gatsby.2013.UHD.2160p.HDR.BluRay.DTS-HDMA.5.1.HEVC-DDR.mkv torrent
King.of.New.York.1990.2160p.HDR.Blu-ray.DTS-HD.MA.5.1.HEVC-DDR.mkv torrent

ETTV Recommended Cam
The Comeback Trail 2020 720p HDCAM-C1NEM4 torrent
Let Him Go (2020) 720p HDCAM [Hindi-Sub] x264 1XBET torrent

ETTV Recommended Foreign
Battle Scars (2020) 720p WEBRip x264 Eng Subs [Dual Audio] [Hindi DD 2.0 - English 2.0] Exclusive By -=!Dr.STAR!=- torrent
Train to Busan (2016) HDRip 720p Org [Hindi Dub + English] x264 Mp3 ESub By Full4Movies torrent
The.Call.2020.1080p.NF.WEB-DL.HIN-ENG.DDP5.1.x264-Telly torrent
Diego Maradona (2019) BluRay 1080p.H264 Ita/Spa AC3 5.1 Sub Ita ODS torrent
Killing Gunther (2017) [1080p] [MP4] [crestiec] torrent
Anna.2019.SHORT.1080p.WEB-DL.x264.AAC.HORiZON-ArtSubs torrent

ETTV Recommended Music
The Official UK Top 40 Singles Chart (20.11.2020) Mp3 (320kbps) [Hunter] torrent
Dope Boys~Trap Gods (feat.2 Chainz~Rick Ross) Single (ETTV)~320~kbps Beats‚≠ź torrent
Granger Smith - Country Things, Vol. 2 (2020) Mp3 320kbps [PMEDIA] ‚≠źÔłŹ torrent
Jimi Hendrix Experience: Live In Maui (2020) [BDRemux 1080p x 264 by alE13 DTS/AC3/PCM][Multi Sub][Eng] torrent
Dream Theater - Distant Memories - Live in London (Bonus Track Edition) (3CD) (2020) [FLAC] [DJ] torrent
[indie-rock] (2020) Sad13 - Haunted Painting [FLAC] [DarkAngie] torrent


Download Torrent "Fatman.2020.HDRip.XviD.B4ND1T69"

IMDB Details
Description:

Santa Claus must contend with a hitman sent from a disappointed child.

Genre:

Action, Comedy, Fantasy, Thriller

Download Torrent (Magnet)
Download Torrent (File)

Seeds: 7
Leechers: 0

Uploaded by:
B4ND1T69


Category:
Movies > XviD


Details
Title:Fatman.2020.HDRip.XviD.B4ND1T69
Description:
Fatman.2020.HDRip.XviD.B4ND1T69



Directors: Eshom Nelms, Ian Nelms
Writers: Ian Nelms, Eshom Nelms
Stars: Mel Gibson, Walton Goggins, Marianne Jean-Baptiste

Plot/Story:
Santa Claus must contend with a hitman sent from a disappointed child.

General
Complete name               : Fatman.2020.HDRip.XviD.B4ND1T69.avi
Format                      : AVI
Format/Info                 : Audio Video Interleave
File size                   : 647 MiB
Duration                    : 1 h 35 min
Overall bit rate            : 945 kb/s
Subtitles                   : Yes...Included(HI)

Video
ID                          : 0
Format                      : MPEG-4 Visual
Format profile¬†¬†¬†¬†¬†¬†¬†¬†¬†¬†¬†¬†¬† : Advanced [email protected]
Format settings, BVOP       : 2
Format settings, QPel       : No
Format settings, GMC        : No warppoints
Format settings, Matrix     : Default (H.263)
Codec ID                    : XVID
Codec ID/Hint               : XviD
Duration                    : 1 h 35 min
Bit rate                    : 803 kb/s
Width                       : 720 pixels
Height                      : 304 pixels
Display aspect ratio        : 2.35:1
Frame rate                  : 25.000 FPS
Color space                 : YUV
Chroma subsampling          : 4:2:0
Bit depth                   : 8 bits
Scan type                   : Progressive
Compression mode            : Lossy
Bits/(Pixel*Frame)          : 0.147
Stream size                 : 550 MiB (85%)
Writing library             : XviD 64

Audio
ID                          : 1
Format                      : MPEG Audio
Format version              : Version 1
Format profile              : Layer 3
Codec ID                    : 55
Codec ID/Hint               : MP3
Duration                    : 1 h 35 min
Bit rate mode               : Constant
Bit rate                    : 128 kb/s
Channel(s)                  : 2 channels
Sampling rate               : 48.0 kHz
Compression mode            : Lossy
Stream size                 : 87.6 MiB (14%)
Alignment                   : Aligned on interleaves
Interleave, duration        : 24  ms (0.60 video frame)

Screenshots:










Please Seed For As Long As Possible
Or At Least 1:1 Ratio...Thanks
Enjoy Peeps

Category:Movies > XviD
Lang:English  English
Total Size:647 MB
Info Hash:2234111b518da6527039367a28c2378a31a4fa63
Added By:B4ND1T69
Date Added:21-11-2020 12:49:54

Files

File List: 
 File Size
Downloaded from 1337x.txt61.00 B
Downloaded from ETTV.txt55.00 B
Downloaded from newkatcr.co.txt139.00 B
Downloaded from ProStyleX.txt54.00 B
Downloaded from The Pirate Bay.txt57.00 B
Fatman.2020.HDRip.XviD.B4ND1T69.avi647 MB
Fatman.2020.HDRip.XviD.B4ND1T69.srt85.45 kB



Comments

There are currently no comments. Be the first one to write something !