mandalorian s.w.a.t ddr The Christmas Chronicles Part Two 2020 big sky scam 1992  Big Sky S01E01 neXt S01E05 The Undoing S01E05 aew The Goldbergs S08E06 Freaky 2020 The Good Doctor S04E04 for life Animaniacs s06e09 720p Hindi 2020 Jiu Jitsu 2020 rq.mp4 minx 0 NeXt The Flight Attendant The Mandalorian  Hindi supernatural 2160p The Curse of Oak Island S08E03 FBI S03E02 Let Him Go 2020 etrg evo The Amazing Race S32E09 The Mandalorian S02E04 tamil Greenland 2020 wwe Tenet The Croods A New Age 2020 the good doctor Jingle Jangle A Christmas Journey 2020 yts FBI Most Wanted S02E02 The Mandalorian S02E03 star trek discovery etmovies Jallikattu The Mandalorian S02E02 marvel week Star Trek discovery s03e07 his dark materials mulan 2020 Star trek  Honest Thief 2020 ethd The New Mutants 2020 Roald Dahls The Witches 2020 Ludo Tenet 2020 ettv Big Sky S01E02 Animaniacs s06e11 720p xxx The Conners s03e05 Fatman 2020 The Mandalorian S02E01 For Life S02E02 Beyond Oak Island S01E02 FBI S.W.A.T. S04E04 Run 2020 star trek discovery s03e06 Ncis NCIS S18E02 
Warning! Use a VPN When Downloading Torrents!
Your IP Address is 34.237.138.69. Location United States
Your Internet Provider can see when you download torrents! Hide your IP Address with a VPN
ETTV warns: You should use VPN to hide your torrenting. HIDE ME NOW
ETTV Recommended TV Shows
The.Conners.S03E05.720p.HDTV.x264-SYNCOPY torrent
The.Goldbergs.2013.S08E06.720p.HDTV.x264-SYNCOPY torrent
Titan FC 65 720p WEB-DL H264 Fight-BB torrent
The.Walking.Dead.World.Beyond.S01E10.1080p.WEB.H264-CAKES torrent
Nat.Geo.Sea.of.Shadows.1080p.x265.AAC.MVGroup.org.mkv torrent
Miz & Mrs S02E11 Miz-ter Mom HDTV x264-NWCHD [TJET] torrent
The.Masked.Singer.S04E09.720p.WEB.h264-KOGi torrent
The.Mandalorian.S02E05.1080p.WEB.H264-GGWP torrent
Hells.Kitchen.US.S19E11.WEBRip.x264-ION10 torrent
NJPW 2020 11 25 Best Of The Super Jr.27 Day 5 ENGLISH 720p WEB h264-LATE [TJET] torrent

ETTV Recommended SD
Life.in.a.Year.2020.HDRip.XviD.AC3-EVO torrent
Faith.2020.HDRip.XviD.AC3-EVO torrent
Black.Beauty.2020.HDRip.XviD.AC3-EVO torrent
A.Christmas.Break.2020.HDRip.XviD.AC3-EVO torrent

ETTV Recommended HD
Lockout 2012 Unrated BluRay 1080p DTS AC3 x264-3Li torrent
Come Away (2020) 720p HDRip [Hindi-Sub] x264 torrent
The.Irishman.2019.1080p.BluRay.H264.AAC-RARBG torrent
Dead Man Down (2013) [Colin Farrell] 1080p H264 DolbyD 5.1 ūüíé nickarad torrent

ETTV Recommended UHD
Beverly.Hills.Cop.1984.MULTi.2160p.UHD.Bluray.DTS-HDMA.5.1.HEVC-DDR.mkv torrent
Fearless.2020.2160p.HDR.WEB.DDP.5.1.HEVC-DDR.mkv torrent
Groundhog.Day.1993.MULTi.2160p.UHD.Blu-ray.HEVC.Atmos.TrueHD.7.1-DDR.mkv torrent
Let.Him.Go.2020.2160p.HDR.WEB.DDP.5.1.HEVC-DDR.mkv torrent
The.Great.Gatsby.2013.UHD.2160p.HDR.BluRay.DTS-HDMA.5.1.HEVC-DDR.mkv torrent
King.of.New.York.1990.2160p.HDR.Blu-ray.DTS-HD.MA.5.1.HEVC-DDR.mkv torrent

ETTV Recommended Cam
The Comeback Trail 2020 720p HDCAM-C1NEM4 torrent
Let Him Go (2020) 720p HDCAM [Hindi-Sub] x264 1XBET torrent

ETTV Recommended Foreign
Battle Scars (2020) 720p WEBRip x264 Eng Subs [Dual Audio] [Hindi DD 2.0 - English 2.0] Exclusive By -=!Dr.STAR!=- torrent
Train to Busan (2016) HDRip 720p Org [Hindi Dub + English] x264 Mp3 ESub By Full4Movies torrent
The.Call.2020.1080p.NF.WEB-DL.HIN-ENG.DDP5.1.x264-Telly torrent
Diego Maradona (2019) BluRay 1080p.H264 Ita/Spa AC3 5.1 Sub Ita ODS torrent
Killing Gunther (2017) [1080p] [MP4] [crestiec] torrent
Anna.2019.SHORT.1080p.WEB-DL.x264.AAC.HORiZON-ArtSubs torrent

ETTV Recommended Music
The Official UK Top 40 Singles Chart (20.11.2020) Mp3 (320kbps) [Hunter] torrent
Robbie Williams: Live at Knebworth 2003 (2013)[BDRemux 1080p x 264 by alE13 DTS/AC3/PCM][Multi Sub][Eng] torrent
Billboard Hot 100 Playlist Spotify 2020 (ETTV)~ 320 kbps Beats‚≠ź torrent
Dope Boys~Trap Gods (feat.2 Chainz~Rick Ross) Single (ETTV)~320~kbps Beats‚≠ź torrent
[indie-rock] (2020) Will Butler - Generations [FLAC] [DarkAngie] torrent
Granger Smith - Country Things, Vol. 2 (2020) Mp3 320kbps [PMEDIA] ‚≠źÔłŹ torrent


Download Torrent "Soorarai Pottru (2020) 720p Malayalam (Org Vers) HDRip x264 AC3 ESub By Ful..."

IMDB Details
Description:

The film is based on events and struggles of Air Deccan founder G. R. Gopinath

Genre:

Action, Drama

Download Torrent (Magnet)
Download Torrent (File)

Seeds: 13
Leechers: 10

Uploaded by:
full4movies


Category:
Movies > Bollywood


Details
Title:Soorarai Pottru (2020) 720p Malayalam (Org Vers) HDRip x264 AC3 ESub By Ful...
Description:


Visit Us = https://full4movies.xyz/

General
Complete name                  : Soorarai Pottru (2020) 720p Malayalam (Org Vers) HDRip x264 AC3 ESub By Full4Movies.mkv
Format                         : Matroska
Format version                 : Version 4
File size                      : 1.27 GiB
Duration                       : 2 h 29 min
Overall bit rate               : 1 221 kb/s
Encoded date                   : UTC 2020-11-21 10:09:44
Writing application            : mkvmerge v8.0.0 ('Til The Day That I Die') 32bit
Writing library                : libebml v1.3.1 + libmatroska v1.4.2

Video
ID                             : 1
Format                         : AVC
Format/Info                    : Advanced Video Codec
Format profile¬† ¬† ¬† ¬† ¬† ¬† ¬† ¬† ¬†: [email protected]
Format settings                : CABAC / 5 Ref Frames
Format settings, CABAC         : Yes
Format settings, Reference fra : 5 frames
Codec ID                       : V_MPEG4/ISO/AVC
Duration                       : 2 h 29 min
Bit rate                       : 1 027 kb/s
Width                          : 1 280 pixels
Height                         : 528 pixels
Display aspect ratio           : 2.40:1
Original display aspect ratio  : 2.40:1
Frame rate mode                : Constant
Frame rate                     : 24.000 FPS
Color space                    : YUV
Chroma subsampling             : 4:2:0
Bit depth                      : 8 bits
Scan type                      : Progressive
Bits/(Pixel*Frame)             : 0.063
Stream size                    : 1.07 GiB (84%)
Language                       : Malayalam
Default                        : Yes
Forced                         : No
Color range                    : Limited
Color primaries                : BT.709
Transfer characteristics       : BT.709
Matrix coefficients            : BT.709

Audio
ID                             : 2
Format                         : E-AC-3
Format/Info                    : Enhanced AC-3
Commercial name                : Dolby Digital Plus
Codec ID                       : A_EAC3
Duration                       : 2 h 29 min
Bit rate mode                  : Constant
Bit rate                       : 192 kb/s
Channel(s)                     : 6 channels
Channel layout                 : L R C LFE Ls Rs
Sampling rate                  : 48.0 kHz
Frame rate                     : 31.250 FPS (1536 SPF)
Compression mode               : Lossy
Stream size                    : 205 MiB (16%)
Language                       : Malayalam
Service kind                   : Complete Main
Default                        : Yes
Forced                         : No

Text
ID                             : 3
Format                         : UTF-8
Codec ID                       : S_TEXT/UTF8
Codec ID/Info                  : UTF-8 Plain Text
Duration                       : 2 h 26 min
Bit rate                       : 68 b/s
Count of elements              : 2196
Stream size                    : 73.6 KiB (0%)
Language                       : English
Default                        : Yes
Forced                         : No

Screen Shoots
Category:Movies > Bollywood
Lang:Malayalam
Total Size:1.27 GB
Info Hash:5af6d5ab25585723344fbaab7f74bfe5ae4025a5
Added By:full4movies
Date Added:21-11-2020 10:46:58

  

Files

File List: 
 File Size
Soorarai Pottru (2020) 720p Malayalam (Org Vers) HDRip x264 AC3 ESub By Full4Movies.mkv1.27 GB



Comments

There are currently no comments. Be the first one to write something !